×

¿Problemas para descargar con Mozilla, EDGE? Deshabilita la opción "Abrir vinculos en una pestaña nueva" tal como lo muestra ésta imagen.

Colateral (2024) PLACEBO Full HD 1080p Latino

37 vistas

Información de Colateral (2024) PLACEBO Full HD 1080p Latino

Datos de la película

  • Calidad: Full 1080p
  • Audio: Español Latino AC3 2.0 WEB-DL - Ingles DTS 5.1 BLURAY
  • Subtitulos: Español Latino SRT- FORZADOS SRT
  • Resolución: 1920x1080p
  • Formato: MKV
  • Codec: H.264
  • Encoder: Melkor
  • Mediainfo: Clic para Mostrar Datos Ver
  • Darkness of Man (2024) PLACEBO 1080p Latino.mkv
    Format                      : Matroska
    Format version              : Version 4
    File size                   : 9.62 GiB
    Duration                    : 1 h 48 min
    Overall bit rate            : 12.6 Mb/s
    Movie name                  : Darkness of Man (2024) CinemaniaHDD.Net
    Encoded date                : UTC 2024-06-02 18:12:58
    Writing application         : mkvmerge v56.1.0 ('My Friend') 64-bit
    Writing library             : libebml v1.4.2 + libmatroska v1.6.4
    Attachments                 : CINEMANIAHD.png
    Site                        : CinemaniaHDD.Net
    Uploader                    : Melkor

    Video
    ID                          : 1
    Format                      : AVC
    Format/Info                 : Advanced Video Codec
    Format profile              : High@L4.1
    Format settings             : CABAC / 4 Ref Frames
    Format settings, CABAC      : Yes
    Format settings, Reference  : 4 frames
    Codec ID                    : V_MPEG4/ISO/AVC
    Duration                    : 1 h 48 min
    Bit rate                    : 10.9 Mb/s
    Width                       : 1 920 pixels
    Height                      : 1 080 pixels
    Display aspect ratio        : 16:9
    Frame rate mode             : Constant
    Frame rate                  : 23.976 (24000/1001) FPS
    Color space                 : YUV
    Chroma subsampling          : 4:2:0
    Bit depth                   : 8 bits
    Scan type                   : Progressive
    Bits/(Pixel*Frame)          : 0.219
    Stream size                 : 8.28 GiB (86%)
    Title                       : Full HD1080p [CinemaniaHDD]
    Writing library             : x264 core 163 r3059 b684ebe0
    Encoding settings           : cabac=1 / ref=4 / deblock=1:0:0 / analyse=0x3:0x133 / me=tesa / subme=11 / psy=1 / psy_rd=1.00:0.00 / mixed_ref=1 / me_range=24 / chroma_me=1 / trellis=2 / 8x8dct=1 / cqm=0 / deadzone=21,11 / fast_pskip=0 / chroma_qp_offset=-2 / threads=24 / lookahead_threads=6 / sliced_threads=0 / nr=0 / decimate=1 / interlaced=0 / bluray_compat=0 / constrained_intra=0 / bframes=16 / b_pyramid=2 / b_adapt=2 / b_bias=0 / direct=3 / weightb=1 / open_gop=0 / weightp=2 / keyint=240 / keyint_min=24 / scenecut=40 / intra_refresh=0 / rc_lookahead=60 / rc=crf / mbtree=1 / crf=19.0 / qcomp=0.60 / qpmin=0 / qpmax=69 / qpstep=4 / vbv_maxrate=62500 / vbv_bufsize=78125 / crf_max=0.0 / nal_hrd=none / filler=0 / ip_ratio=1.40 / aq=1:1.00
    Default                     : Yes
    Forced                      : Yes
    Color range                 : Limited
    Color primaries             : BT.709
    Transfer characteristics    : BT.709
    Matrix coefficients         : BT.709

    Audio #1
    ID                          : 2
    Format                      : AC-3
    Format/Info                 : Audio Coding 3
    Commercial name             : Dolby Digital
    Codec ID                    : A_AC3
    Duration                    : 1 h 48 min
    Bit rate mode               : Constant
    Bit rate                    : 256 kb/s
    Channel(s)                  : 2 channels
    Channel layout              : L R
    Sampling rate               : 48.0 kHz
    Frame rate                  : 31.250 FPS (1536 SPF)
    Compression mode            : Lossy
    Stream size                 : 199 MiB (2%)
    Title                       : Español Latino [CinemaniaHDD]
    Language                    : Spanish
    Service kind                : Complete Main
    Default                     : Yes
    Forced                      : Yes

    Audio #2
    ID                          : 3
    Format                      : DTS
    Format/Info                 : Digital Theater Systems
    Codec ID                    : A_DTS
    Duration                    : 1 h 48 min
    Bit rate mode               : Constant
    Bit rate                    : 1 509 kb/s
    Channel(s)                  : 6 channels
    Channel layout              : C L R Ls Rs LFE
    Sampling rate               : 48.0 kHz
    Frame rate                  : 93.750 FPS (512 SPF)
    Bit depth                   : 24 bits
    Compression mode            : Lossy
    Stream size                 : 1.15 GiB (12%)
    Title                       : Ingles [CinemaniaHDD]
    Language                    : English
    Default                     : No
    Forced                      : No

    Text #1
    ID                          : 4
    Format                      : UTF-8
    Codec ID                    : S_TEXT/UTF8
    Codec ID/Info               : UTF-8 Plain Text
    Duration                    : 1 h 30 min
    Bit rate                    : 0 b/s
    Count of elements           : 9
    Stream size                 : 147 Bytes (0%)
    Title                       : Forzados-SRT [CinemaniaHDD]
    Language                    : Spanish
    Default                     : Yes
    Forced                      : Yes

    Text #2
    ID                          : 5
    Format                      : UTF-8
    Codec ID                    : S_TEXT/UTF8
    Codec ID/Info               : UTF-8 Plain Text
    Duration                    : 1 h 43 min
    Bit rate                    : 42 b/s
    Count of elements           : 1114
    Stream size                 : 32.4 KiB (0%)
    Title                       : Español-SRT [CinemaniaHDD]
    Language                    : Spanish
    Default                     : No
    Forced                      : No

    Text #3
    ID                          : 6
    Format                      : UTF-8
    Codec ID                    : S_TEXT/UTF8
    Codec ID/Info               : UTF-8 Plain Text
    Duration                    : 1 h 48 min
    Bit rate                    : 57 b/s
    Count of elements           : 1384
    Stream size                 : 45.7 KiB (0%)
    Title                       : Ingles [CinemaniaHDD]
    Language                    : English
    Default                     : No
    Forced                      : No

    Menu
    00:00:00.000                : Chapter 01
    00:07:10.263                : Chapter 02
    00:14:44.801                : Chapter 03
    00:21:34.126                : Chapter 04
    00:29:29.518                : Chapter 05
    00:35:54.235                : Chapter 06
    00:46:07.765                : Chapter 07
    00:59:54.841                : Chapter 08
    01:13:13.180                : Chapter 09
    01:22:36.743                : Chapter 10
    01:33:24.891                : Chapter 11
    01:42:44.241                : Chapter 12

  • Peso: 9.62 GiB

Sinopsis

Descargar Colateral (2024) PLACEBO Full HD 1080p Latino. Russell Hatch, un agente de la Interpol que asume el papel de figura paterna para Jayden, el hijo de un informante asesinado en una redada de rutina que salió mal. Años más tarde, Hatch se encuentra protegiendo a Jayden y a su abuelo de un grupo de pandillas despiadadas en una guerra territorial total, sin detenerse ante nada para proteger a Jayden y luchar contra cualquiera que se interponga en su camino.

Ficha técnica

Video trailer de la película

Enlaces de descarga

Rip de Bluray

Descargar Colateral (2024) PLACEBO Full HD 1080p Latino




Aportes de DPeliculasHDmega la pass es:dpeliculashdmega.org Aportes de CinemaniaHD la pass es:cinemaniahdd.com Aportes recientes:cinemaniahdd.net

Películas relacionadas

descargar Colateral (2024) PLACEBO Full HD 1080p Latino Full 1080p 1080p gratis, Colateral (2024) PLACEBO Full HD 1080p Latino Full 1080p mega 1 link, Colateral (2024) PLACEBO Full HD 1080p Latino Full 1080p pelicula completa, descargar Colateral (2024) PLACEBO Full HD 1080p Latino Full 1080p gratis en mega.

Colateral (2024) PLACEBO Full HD 1080p Latino pelicula full hd, Colateral (2024) PLACEBO Full HD 1080p Latino mega latino, Colateral (2024) PLACEBO Full HD 1080p Latino 4k latino, Colateral (2024) PLACEBO Full HD 1080p Latino pelicula completa, Colateral (2024) PLACEBO Full HD 1080p Latino descargar gratis, descargar Colateral (2024) PLACEBO Full HD 1080p Latino pelicula latino, Colateral (2024) PLACEBO Full HD 1080p Latino 1 link mega, Colateral (2024) PLACEBO Full HD 1080p Latino 1 link google drive, Colateral (2024) PLACEBO Full HD 1080p Latino hd 1080p latino.
Comentarios 0