×

¿Problemas para descargar con Mozilla, EDGE? Deshabilita la opción "Abrir vinculos en una pestaña nueva" tal como lo muestra ésta imagen.

Código Banshee (2022) REMUX 1080p Latino

227 vistas

Información de Código Banshee (2022) REMUX 1080p Latino

Datos de la película

  • Calidad: Full 1080p
  • Audio: Español Latino AC3 5.1 WEB-DL - Ingles DTS 5.1 BLURAY
  • Subtitulos: Español Latino SRT- FORZADOS SRT
  • Resolución: 1920x1080p
  • Formato: MKV
  • Codec: H.264
  • Encoder: Melkor
  • Mediainfo: Clic para Mostrar Datos Ver
  • Codigo Banshee (2022) REMUX 1080p Latino.mkv
    Format                      : Matroska
    Format version              : Version 4
    File size                   : 19.7 GiB
    Duration                    : 1 h 32 min
    Overall bit rate mode       : Variable
    Overall bit rate            : 30.3 Mb/s
    Movie name                  : Code Name Banshee (2022) CinemaniaHDD.Net
    Encoded date                : UTC 2023-03-24 04:33:44
    Writing application         : mkvmerge v56.1.0 ('My Friend') 64-bit
    Writing library             : libebml v1.4.2 + libmatroska v1.6.4
    Attachments                 : CINEMANIAHD.png
    Site                        : CinemaniaHDD.Net
    Uploader                    : Melkor

    Video
    ID                          : 1
    Format                      : AVC
    Format/Info                 : Advanced Video Codec
    Format profile              : High@L4.1
    Format settings             : CABAC / 4 Ref Frames
    Format settings, CABAC      : Yes
    Format settings, Reference  : 4 frames
    Format settings, GOP        : M=3, N=12
    Codec ID                    : V_MPEG4/ISO/AVC
    Duration                    : 1 h 32 min
    Bit rate mode               : Variable
    Bit rate                    : 26.0 Mb/s
    Maximum bit rate            : 32.5 Mb/s
    Width                       : 1 920 pixels
    Height                      : 1 080 pixels
    Display aspect ratio        : 16:9
    Frame rate mode             : Constant
    Frame rate                  : 23.976 (24000/1001) FPS
    Standard                    : NTSC
    Color space                 : YUV
    Chroma subsampling          : 4:2:0
    Bit depth                   : 8 bits
    Scan type                   : Progressive
    Bits/(Pixel*Frame)          : 0.524
    Stream size                 : 16.9 GiB (86%)
    Title                       : REMUX HD1080p [CinemaniaHDD]
    Default                     : Yes
    Forced                      : Yes
    Color range                 : Limited
    Color primaries             : BT.709
    Transfer characteristics    : BT.709
    Matrix coefficients         : BT.709

    Audio #1
    ID                          : 2
    Format                      : AC-3
    Format/Info                 : Audio Coding 3
    Commercial name             : Dolby Digital
    Codec ID                    : A_AC3
    Duration                    : 1 h 32 min
    Bit rate mode               : Constant
    Bit rate                    : 448 kb/s
    Channel(s)                  : 6 channels
    Channel layout              : L R C LFE Ls Rs
    Sampling rate               : 48.0 kHz
    Frame rate                  : 31.250 FPS (1536 SPF)
    Compression mode            : Lossy
    Stream size                 : 298 MiB (1%)
    Title                       : Español Latino [CinemaniaHDD]
    Language                    : Spanish
    Service kind                : Complete Main
    Default                     : Yes
    Forced                      : Yes

    Audio #2
    ID                          : 3
    Format                      : DTS XLL
    Format/Info                 : Digital Theater Systems
    Commercial name             : DTS-HD Master Audio
    Codec ID                    : A_DTS
    Duration                    : 1 h 32 min
    Bit rate mode               : Variable
    Bit rate                    : 3 817 kb/s
    Channel(s)                  : 6 channels
    Channel layout              : C L R Ls Rs LFE
    Sampling rate               : 48.0 kHz
    Frame rate                  : 93.750 FPS (512 SPF)
    Bit depth                   : 24 bits
    Compression mode            : Lossless
    Stream size                 : 2.48 GiB (13%)
    Title                       : Ingles [CinemaniaHDD]
    Language                    : English
    Default                     : No
    Forced                      : No

    Text #1
    ID                          : 4
    Format                      : UTF-8
    Codec ID                    : S_TEXT/UTF8
    Codec ID/Info               : UTF-8 Plain Text
    Duration                    : 1 h 16 min
    Bit rate                    : 1 b/s
    Count of elements           : 24
    Stream size                 : 597 Bytes (0%)
    Title                       : Forzados-SRT [CinemaniaHDD]
    Language                    : Spanish
    Default                     : Yes
    Forced                      : Yes

    Text #2
    ID                          : 5
    Format                      : UTF-8
    Codec ID                    : S_TEXT/UTF8
    Codec ID/Info               : UTF-8 Plain Text
    Duration                    : 1 h 28 min
    Bit rate                    : 37 b/s
    Count of elements           : 792
    Stream size                 : 24.1 KiB (0%)
    Title                       : Español-SRT [CinemaniaHDD]
    Language                    : Spanish
    Default                     : No
    Forced                      : No

    Text #3
    ID                          : 6
    Format                      : PGS
    Muxing mode                 : zlib
    Codec ID                    : S_HDMV/PGS
    Codec ID/Info               : Picture based subtitle format used on BDs/HD-DVDs
    Duration                    : 1 h 32 min
    Bit rate                    : 45.4 kb/s
    Count of elements           : 2856
    Stream size                 : 30.0 MiB (0%)
    Title                       : Ingles [CinemaniaHDD]
    Language                    : English
    Default                     : No
    Forced                      : No

    Menu
    00:00:00.000                : INTO THE HANDS OF THE RUSSIANS
    00:06:52.829                : A SMALL THING
    00:13:57.086                : ARE YOU SERIOUS?
    00:21:07.975                : BETWEEN ME & YOU
    00:26:53.028                : NOT MY LUCKY DAY
    00:32:15.642                : VERY CLOSE
    00:44:03.432                : WHAT ARE YOU THINKING?
    00:52:35.235                : KEEP HIM ALIVE
    01:01:00.031                : MAKE SURE THEY HUSTLE
    01:10:09.872                : THEY'RE USING THERMAL
    01:21:18.624                : WHERE'S CALEB?
    01:28:20.545                : END CREDITS

  • Peso: 19.7 GiB

Sinopsis

Descargar Código Banshee (2022) REMUX 1080p Latino. Caleb, un antiguo asesino del gobierno escondido, que reaparece cuando su protegido, el asesino igualmente mortal conocido como Banshee, descubre que se ha puesto una recompensa por la cabeza de Caleb.

Ficha técnica

  • Titulo original: Code Name Banshee
  • Fecha de lanzamiento: 01-07-2022 (United States of America)
  • Director: Jon Keeyes
  • Género: Acción, Remux, Suspenso

Video trailer de la película

Enlaces de descarga

Rip de Bluray

Descargar Código Banshee (2022) REMUX 1080p Latino




Aportes de DPeliculasHDmega la pass es:dpeliculashdmega.org Aportes de CinemaniaHD la pass es:cinemaniahdd.com Aportes recientes:cinemaniahdd.net
Guardado en : Acción , Remux , Suspenso

Películas relacionadas

descargar Código Banshee (2022) REMUX 1080p Latino Full 1080p 1080p gratis, Código Banshee (2022) REMUX 1080p Latino Full 1080p mega 1 link, Código Banshee (2022) REMUX 1080p Latino Full 1080p pelicula completa, descargar Código Banshee (2022) REMUX 1080p Latino Full 1080p gratis en mega.

Código Banshee (2022) REMUX 1080p Latino pelicula full hd, Código Banshee (2022) REMUX 1080p Latino mega latino, Código Banshee (2022) REMUX 1080p Latino 4k latino, Código Banshee (2022) REMUX 1080p Latino pelicula completa, Código Banshee (2022) REMUX 1080p Latino descargar gratis, descargar Código Banshee (2022) REMUX 1080p Latino pelicula latino, Código Banshee (2022) REMUX 1080p Latino 1 link mega, Código Banshee (2022) REMUX 1080p Latino 1 link google drive, Código Banshee (2022) REMUX 1080p Latino hd 1080p latino.
Comentarios 0