×

¿Problemas para descargar con Mozilla, EDGE? Deshabilita la opción "Abrir vinculos en una pestaña nueva" tal como lo muestra ésta imagen.

Código Banshee (2022) PLACEBO Full HD 1080p Latino

309 vistas

Información de Código Banshee (2022) PLACEBO Full HD 1080p Latino

Datos de la película

  • Calidad: Full 1080p
  • Audio: Español Latino AC3 5.1 WEB-DL - Ingles DTS 5.1 BLURAY
  • Subtitulos: Español Latino SRT- FORZADOS SRT
  • Resolución: 1920x1080p
  • Formato: MKV
  • Codec: H.264
  • Encoder: Melkor
  • Mediainfo: Clic para Mostrar Datos Ver
  • Codigo Banshee (2022) PLACEBO 1080p Latino.mkv
    Format                      : Matroska
    Format version              : Version 4
    File size                   : 5.52 GiB
    Duration                    : 1 h 32 min
    Overall bit rate            : 8 515 kb/s
    Movie name                  : Code Name Banshee (2022) CinemaniaHDD.Net
    Encoded date                : UTC 2023-03-24 04:59:28
    Writing application         : mkvmerge v56.1.0 ('My Friend') 64-bit
    Writing library             : libebml v1.4.2 + libmatroska v1.6.4
    Attachments                 : CINEMANIAHD.png
    Site                        : CinemaniaHDD.Net
    Uploader                    : Melkor

    Video
    ID                          : 1
    Format                      : AVC
    Format/Info                 : Advanced Video Codec
    Format profile              : High@L4.1
    Format settings             : CABAC / 4 Ref Frames
    Format settings, CABAC      : Yes
    Format settings, Reference  : 4 frames
    Codec ID                    : V_MPEG4/ISO/AVC
    Duration                    : 1 h 32 min
    Bit rate                    : 6 528 kb/s
    Width                       : 1 920 pixels
    Height                      : 1 080 pixels
    Display aspect ratio        : 16:9
    Frame rate mode             : Constant
    Frame rate                  : 23.976 (24000/1001) FPS
    Color space                 : YUV
    Chroma subsampling          : 4:2:0
    Bit depth                   : 8 bits
    Scan type                   : Progressive
    Bits/(Pixel*Frame)          : 0.131
    Stream size                 : 4.24 GiB (77%)
    Title                       : Full HD1080p [CinemaniaHDD]
    Writing library             : x264 core 163 r3059 b684ebe0
    Encoding settings           : cabac=1 / ref=4 / deblock=1:0:0 / analyse=0x3:0x133 / me=tesa / subme=11 / psy=1 / psy_rd=1.00:0.00 / mixed_ref=1 / me_range=24 / chroma_me=1 / trellis=2 / 8x8dct=1 / cqm=0 / deadzone=21,11 / fast_pskip=0 / chroma_qp_offset=-2 / threads=24 / lookahead_threads=6 / sliced_threads=0 / nr=0 / decimate=1 / interlaced=0 / bluray_compat=0 / constrained_intra=0 / bframes=16 / b_pyramid=2 / b_adapt=2 / b_bias=0 / direct=3 / weightb=1 / open_gop=0 / weightp=2 / keyint=240 / keyint_min=24 / scenecut=40 / intra_refresh=0 / rc_lookahead=60 / rc=crf / mbtree=1 / crf=19.0 / qcomp=0.60 / qpmin=0 / qpmax=69 / qpstep=4 / vbv_maxrate=62500 / vbv_bufsize=78125 / crf_max=0.0 / nal_hrd=none / filler=0 / ip_ratio=1.40 / aq=1:1.00
    Default                     : Yes
    Forced                      : Yes
    Color range                 : Limited
    Color primaries             : BT.709
    Transfer characteristics    : BT.709
    Matrix coefficients         : BT.709

    Audio #1
    ID                          : 2
    Format                      : AC-3
    Format/Info                 : Audio Coding 3
    Commercial name             : Dolby Digital
    Codec ID                    : A_AC3
    Duration                    : 1 h 32 min
    Bit rate mode               : Constant
    Bit rate                    : 448 kb/s
    Channel(s)                  : 6 channels
    Channel layout              : L R C LFE Ls Rs
    Sampling rate               : 48.0 kHz
    Frame rate                  : 31.250 FPS (1536 SPF)
    Compression mode            : Lossy
    Stream size                 : 298 MiB (5%)
    Title                       : Español Latino [CinemaniaHDD]
    Language                    : Spanish
    Service kind                : Complete Main
    Default                     : Yes
    Forced                      : Yes

    Audio #2
    ID                          : 3
    Format                      : DTS
    Format/Info                 : Digital Theater Systems
    Codec ID                    : A_DTS
    Duration                    : 1 h 32 min
    Bit rate mode               : Constant
    Bit rate                    : 1 509 kb/s
    Channel(s)                  : 6 channels
    Channel layout              : C L R Ls Rs LFE
    Sampling rate               : 48.0 kHz
    Frame rate                  : 93.750 FPS (512 SPF)
    Bit depth                   : 24 bits
    Compression mode            : Lossy
    Stream size                 : 1 002 MiB (18%)
    Title                       : Ingles [CinemaniaHDD]
    Language                    : English
    Default                     : No
    Forced                      : No

    Text #1
    ID                          : 4
    Format                      : UTF-8
    Codec ID                    : S_TEXT/UTF8
    Codec ID/Info               : UTF-8 Plain Text
    Duration                    : 1 h 16 min
    Bit rate                    : 1 b/s
    Count of elements           : 24
    Stream size                 : 597 Bytes (0%)
    Title                       : Forzados-SRT [CinemaniaHDD]
    Language                    : Spanish
    Default                     : Yes
    Forced                      : Yes

    Text #2
    ID                          : 5
    Format                      : UTF-8
    Codec ID                    : S_TEXT/UTF8
    Codec ID/Info               : UTF-8 Plain Text
    Duration                    : 1 h 28 min
    Bit rate                    : 37 b/s
    Count of elements           : 792
    Stream size                 : 24.1 KiB (0%)
    Title                       : Español-SRT [CinemaniaHDD]
    Language                    : Spanish
    Default                     : No
    Forced                      : No

    Text #3
    ID                          : 6
    Format                      : PGS
    Muxing mode                 : zlib
    Codec ID                    : S_HDMV/PGS
    Codec ID/Info               : Picture based subtitle format used on BDs/HD-DVDs
    Duration                    : 1 h 32 min
    Bit rate                    : 45.4 kb/s
    Count of elements           : 2856
    Stream size                 : 30.0 MiB (1%)
    Title                       : Ingles [CinemaniaHDD]
    Language                    : English
    Default                     : No
    Forced                      : No

    Menu
    00:00:00.000                : INTO THE HANDS OF THE RUSSIANS
    00:06:52.829                : A SMALL THING
    00:13:57.086                : ARE YOU SERIOUS?
    00:21:07.975                : BETWEEN ME & YOU
    00:26:53.028                : NOT MY LUCKY DAY
    00:32:15.642                : VERY CLOSE
    00:44:03.432                : WHAT ARE YOU THINKING?
    00:52:35.235                : KEEP HIM ALIVE
    01:01:00.031                : MAKE SURE THEY HUSTLE
    01:10:09.872                : THEY'RE USING THERMAL
    01:21:18.624                : WHERE'S CALEB?
    01:28:20.545                : END CREDITS

  • Peso: 5.52 GiB

Sinopsis

Descargar Código Banshee (2022) PLACEBO Full HD 1080p Latino. Caleb, un antiguo asesino del gobierno escondido, que reaparece cuando su protegido, el asesino igualmente mortal conocido como Banshee, descubre que se ha puesto una recompensa por la cabeza de Caleb.

Ficha técnica

Video trailer de la película

Enlaces de descarga

Rip de Bluray

Descargar Código Banshee (2022) PLACEBO Full HD 1080p Latino




Aportes de DPeliculasHDmega la pass es:dpeliculashdmega.org Aportes de CinemaniaHD la pass es:cinemaniahdd.com Aportes recientes:cinemaniahdd.net

Películas relacionadas

  • Tiburón (1975) REMUX 1080p Latino-CMHDD

    Tiburón (1975) REMUX 1080p Latino-CMHDD

    1975
    Tiburón (1975) REMUX 1080p Latino-CMHDD

    2h 4m 1975

    Descargar Tiburón (1975) REMUX 1080p Latino-CMHDD. En la costa de un pequeño pueblo del Este de Estados...

    Director: Tom Joyner

    Género: Aventura

    Actores: Ted Grossman

  • Oblivion (2013) REMUX 4K HDR Latino – CMHDD

    Oblivion (2013) REMUX 4K HDR Latino – CMHDD

    2013
    Oblivion (2013) REMUX 4K HDR Latino – CMHDD

    2 h 4 min 2013

    Jack Harper es uno de los últimos técnicos de reparación de drones que permanece en la Tierra. Parte...

    Director: Joseph Kosinski

    Género: 4K HDR

    Actores: Zoë Bell

  • El bebé de Rosemary (1968) 1080p Latino-CMHDD

    El bebé de Rosemary (1968) 1080p Latino-CMHDD

    1968
    El bebé de Rosemary (1968) 1080p Latino-CMHDD

    2h 18m 1968

    Descargar El bebé de Rosemary (1968) 1080p Latino-CMHDD. Una joven pareja, Rosemary y Guy, se muda a...

    Director: Roman Polanski

    Género: Drama

    Actores: William Castle

descargar Código Banshee (2022) PLACEBO Full HD 1080p Latino Full 1080p 1080p gratis, Código Banshee (2022) PLACEBO Full HD 1080p Latino Full 1080p mega 1 link, Código Banshee (2022) PLACEBO Full HD 1080p Latino Full 1080p pelicula completa, descargar Código Banshee (2022) PLACEBO Full HD 1080p Latino Full 1080p gratis en mega.

Código Banshee (2022) PLACEBO Full HD 1080p Latino pelicula full hd, Código Banshee (2022) PLACEBO Full HD 1080p Latino mega latino, Código Banshee (2022) PLACEBO Full HD 1080p Latino 4k latino, Código Banshee (2022) PLACEBO Full HD 1080p Latino pelicula completa, Código Banshee (2022) PLACEBO Full HD 1080p Latino descargar gratis, descargar Código Banshee (2022) PLACEBO Full HD 1080p Latino pelicula latino, Código Banshee (2022) PLACEBO Full HD 1080p Latino 1 link mega, Código Banshee (2022) PLACEBO Full HD 1080p Latino 1 link google drive, Código Banshee (2022) PLACEBO Full HD 1080p Latino hd 1080p latino.
Comentarios 0