×

¿Problemas para descargar con Mozilla, EDGE? Deshabilita la opción "Abrir vinculos en una pestaña nueva" tal como lo muestra ésta imagen.

CODA: Los sonidos del silencio (2021) REMUX 1080p Latino

412 vistas

Información de CODA: Los sonidos del silencio (2021) REMUX 1080p Latino

Datos de la película

  • Calidad: Full 1080p
  • Audio: Español Latino AC3 5.1 WEB-DL - Ingles DTS 5.1 BLURAY
  • Subtitulos: Español Latino SRT- FORZADOS SRT
  • Resolución: 1920x1080p
  • Formato: MKV
  • Codec: H.264
  • Encoder: Melkor
  • Mediainfo: Clic para Mostrar Datos Ver
  • CODA (2021) REMUX 1080p Latino.mkv
    Format                      : Matroska
    Format version              : Version 4
    File size                   : 16.8 GiB
    Duration                    : 1 h 52 min
    Overall bit rate mode       : Variable
    Overall bit rate            : 21.5 Mb/s
    Movie name                  : CODA (2021) CinemaniaHDD.Net
    Encoded date                : UTC 2022-02-11 06:32:09
    Writing application         : mkvmerge v56.1.0 ('My Friend') 64-bit
    Writing library             : libebml v1.4.2 + libmatroska v1.6.4
    Attachments                 : CINEMANIAHD.png

    Video
    ID                          : 1
    Format                      : AVC
    Format/Info                 : Advanced Video Codec
    Format profile              : High@L4.1
    Format settings             : CABAC / 4 Ref Frames
    Format settings, CABAC      : Yes
    Format settings, Reference  : 4 frames
    Format settings, GOP        : M=3, N=12
    Codec ID                    : V_MPEG4/ISO/AVC
    Duration                    : 1 h 52 min
    Bit rate mode               : Variable
    Bit rate                    : 16.9 Mb/s
    Maximum bit rate            : 33.0 Mb/s
    Width                       : 1 920 pixels
    Height                      : 1 080 pixels
    Display aspect ratio        : 16:9
    Frame rate mode             : Constant
    Frame rate                  : 24.000 FPS
    Color space                 : YUV
    Chroma subsampling          : 4:2:0
    Bit depth                   : 8 bits
    Scan type                   : Progressive
    Bits/(Pixel*Frame)          : 0.339
    Stream size                 : 13.2 GiB (79%)
    Title                       : REMUX HD1080p [CinemaniaHDD]
    Language                    : English
    Default                     : Yes
    Forced                      : Yes

    Audio #1
    ID                          : 2
    Format                      : AC-3
    Format/Info                 : Audio Coding 3
    Commercial name             : Dolby Digital
    Codec ID                    : A_AC3
    Duration                    : 1 h 52 min
    Bit rate mode               : Constant
    Bit rate                    : 640 kb/s
    Channel(s)                  : 6 channels
    Channel layout              : L R C LFE Ls Rs
    Sampling rate               : 48.0 kHz
    Frame rate                  : 31.250 FPS (1536 SPF)
    Compression mode            : Lossy
    Stream size                 : 513 MiB (3%)
    Title                       : Español Latino [CinemaniaHDD]
    Language                    : Spanish
    Service kind                : Complete Main
    Default                     : Yes
    Forced                      : Yes

    Audio #2
    ID                          : 3
    Format                      : DTS XLL
    Format/Info                 : Digital Theater Systems
    Commercial name             : DTS-HD Master Audio
    Codec ID                    : A_DTS
    Duration                    : 1 h 52 min
    Bit rate mode               : Variable
    Bit rate                    : 3 966 kb/s
    Channel(s)                  : 6 channels
    Channel layout              : C L R Ls Rs LFE
    Sampling rate               : 48.0 kHz
    Frame rate                  : 93.750 FPS (512 SPF)
    Bit depth                   : 24 bits
    Compression mode            : Lossless
    Stream size                 : 3.11 GiB (18%)
    Title                       : Ingles [CinemaniaHDD]
    Language                    : English
    Default                     : No
    Forced                      : No

    Text #1
    ID                          : 4
    Format                      : UTF-8
    Codec ID                    : S_TEXT/UTF8
    Codec ID/Info               : UTF-8 Plain Text
    Duration                    : 1 h 50 min
    Bit rate                    : 22 b/s
    Count of elements           : 605
    Stream size                 : 17.8 KiB (0%)
    Title                       : Forzados-SRT [CinemaniaHDD]
    Language                    : Spanish
    Default                     : Yes
    Forced                      : Yes

    Text #2
    ID                          : 5
    Format                      : UTF-8
    Codec ID                    : S_TEXT/UTF8
    Codec ID/Info               : UTF-8 Plain Text
    Duration                    : 1 h 50 min
    Bit rate                    : 43 b/s
    Count of elements           : 1368
    Stream size                 : 35.4 KiB (0%)
    Title                       : Español-SRT [CinemaniaHDD]
    Language                    : Spanish
    Default                     : No
    Forced                      : No

    Text #3
    ID                          : 6
    Format                      : UTF-8
    Codec ID                    : S_TEXT/UTF8
    Codec ID/Info               : UTF-8 Plain Text
    Duration                    : 1 h 43 min
    Bit rate                    : 46 b/s
    Count of elements           : 1407
    Stream size                 : 35.3 KiB (0%)
    Title                       : Ingles [CinemaniaHDD]
    Language                    : English
    Default                     : No
    Forced                      : No

    Menu
    00:00:00.000                : :Chapter 01
    00:08:49.750                : :Chapter 02
    00:19:26.625                : :Chapter 03
    00:27:56.917                : :Chapter 04
    00:37:13.708                : :Chapter 05
    00:46:35.750                : :Chapter 06
    00:56:19.000                : :Chapter 07
    01:05:26.417                : :Chapter 08
    01:14:39.750                : :Chapter 09
    01:21:09.500                : :Chapter 10
    01:32:47.750                : :Chapter 11
    01:42:26.917                : :Chapter 12

  • Peso: 16.8 GiB

Sinopsis

Descargar CODA: Los sonidos del silencio (2021) REMUX 1080p Latino. Ruby (Emilia Jones) es el único miembro con audición de una familia de sordos. A sus 17 años, trabaja por la mañana con sus padres y su hermano en Gloucester, Massachusetts, antes de ir a clase, tratando de mantener a flote su negocio pesquero. Ávida de encontrar nuevas aficiones, Ruby decide probar suerte en el coro de su instituto, donde no sólo descubre una latente pasión por el canto, sino también una fuerte atracción física por la persona con la que realiza duetos. Su entusiasta profesor (Eugenio Derbez) ve algo especial en ella y la anima a que piense en la posibilidad de entrar en la escuela de música, algo que la obligaría a tener que tomar una decisión de cara a su futuro: o sus estudios, o su familia.

Ficha técnica

Video trailer de la película

Enlaces de descarga

Rip de Bluray

Descargar CODA: Los sonidos del silencio (2021) REMUX 1080p Latino


Aportes de DPeliculasHDmega la pass es:dpeliculashdmega.org Aportes de CinemaniaHD la pass es:cinemaniahdd.com
Guardado en : Drama , Música , Remux , Romance

Películas relacionadas

descargar CODA: Los sonidos del silencio (2021) REMUX 1080p Latino Full 1080p 1080p gratis, CODA: Los sonidos del silencio (2021) REMUX 1080p Latino Full 1080p mega 1 link, CODA: Los sonidos del silencio (2021) REMUX 1080p Latino Full 1080p pelicula completa, descargar CODA: Los sonidos del silencio (2021) REMUX 1080p Latino Full 1080p gratis en mega.

CODA: Los sonidos del silencio (2021) REMUX 1080p Latino pelicula full hd, CODA: Los sonidos del silencio (2021) REMUX 1080p Latino mega latino, CODA: Los sonidos del silencio (2021) REMUX 1080p Latino 4k latino, CODA: Los sonidos del silencio (2021) REMUX 1080p Latino pelicula completa, CODA: Los sonidos del silencio (2021) REMUX 1080p Latino descargar gratis, descargar CODA: Los sonidos del silencio (2021) REMUX 1080p Latino pelicula latino, CODA: Los sonidos del silencio (2021) REMUX 1080p Latino 1 link mega, CODA: Los sonidos del silencio (2021) REMUX 1080p Latino 1 link google drive, CODA: Los sonidos del silencio (2021) REMUX 1080p Latino hd 1080p latino.
Comentarios 0