×

¿Problemas para descargar con Mozilla, EDGE? Deshabilita la opción "Abrir vinculos en una pestaña nueva" tal como lo muestra ésta imagen.

Coco (2017) REMUX 1080p Latino – CMHDD

1.699 vistas

Información de Coco (2017) REMUX 1080p Latino – CMHDD

Datos de la película

  • Calidad: Full 1080p
  • Audio: Español Latino AC3 5.1 BLURAY - Ingles DTS-HD Master 7.1 BLURAY
  • Subtitulos: Español Latino PGS
  • Resolución: 1920x1080p
  • Formato: MKV
  • Codec: H.264
  • Encoder: Dracarys
  • Mediainfo: Clic para Mostrar Datos Ver
  • Format                      : Matroska
    Format version              : Version 4
    File size                   : 21.4 GiB
    Duration                    : 1 h 45 min
    Overall bit rate mode       : Variable
    Overall bit rate            : 29.2 Mb/s
    Movie name                  : CinemaniaHDD.net
    Encoded date                : UTC 2019-07-06 04:10:04
    Writing application         : mkvmerge v30.1.0 ('Forever And More') 64-bit
    Writing library             : libebml v1.3.6 + libmatroska v1.4.9

    Video
    ID                          : 1
    Format                      : AVC
    Format/Info                 : Advanced Video Codec
    Format profile              : High@L4.1
    Format settings             : CABAC / 4 Ref Frames
    Format settings, CABAC      : Yes
    Format settings, ReFrames   : 4 frames
    Format settings, GOP        : M=1, N=12
    Codec ID                    : V_MPEG4/ISO/AVC
    Duration                    : 1 h 45 min
    Bit rate mode               : Variable
    Bit rate                    : 24.0 Mb/s
    Maximum bit rate            : 32.0 Mb/s
    Width                       : 1 920 pixels
    Height                      : 1 080 pixels
    Display aspect ratio        : 16:9
    Frame rate mode             : Constant
    Frame rate                  : 23.976 (24000/1001) FPS
    Color space                 : YUV
    Chroma subsampling          : 4:2:0
    Bit depth                   : 8 bits
    Scan type                   : Progressive
    Bits/(Pixel*Frame)          : 0.483
    Stream size                 : 17.6 GiB (82%)
    Language                    : English
    Default                     : Yes
    Forced                      : No

    Audio #1
    ID                          : 2
    Format                      : DTS XLL
    Format/Info                 : Digital Theater Systems
    Commercial name             : DTS-HD Master Audio
    Codec ID                    : A_DTS
    Duration                    : 1 h 45 min
    Bit rate mode               : Variable
    Bit rate                    : 4 478 kb/s
    Channel(s)                  : 8 channels
    Channel layout              : C L R LFE Lb Rb Lss Rss
    Sampling rate               : 48.0 kHz
    Frame rate                  : 93.750 FPS (512 SPF)
    Bit depth                   : 24 bits
    Compression mode            : Lossless
    Stream size                 : 3.29 GiB (15%)
    Language                    : English
    Default                     : No
    Forced                      : No

    Audio #2
    ID                          : 3
    Format                      : AC-3
    Format/Info                 : Audio Coding 3
    Commercial name             : Dolby Digital
    Codec ID                    : A_AC3
    Duration                    : 1 h 45 min
    Bit rate mode               : Constant
    Bit rate                    : 640 kb/s
    Channel(s)                  : 6 channels
    Channel layout              : L R C LFE Ls Rs
    Sampling rate               : 48.0 kHz
    Frame rate                  : 31.250 FPS (1536 SPF)
    Bit depth                   : 16 bits
    Compression mode            : Lossy
    Stream size                 : 481 MiB (2%)
    Language                    : Spanish
    Service kind                : Complete Main
    Default                     : Yes
    Forced                      : No

    Text #1
    ID                          : 4
    Format                      : PGS
    Muxing mode                 : zlib
    Codec ID                    : S_HDMV/PGS
    Codec ID/Info               : Picture based subtitle format used on BDs/HD-DVDs
    Duration                    : 1 h 44 min
    Bit rate                    : 35.3 kb/s
    Count of elements           : 2242
    Stream size                 : 26.3 MiB (0%)
    Language                    : Spanish
    Default                     : No
    Forced                      : No

    Text #2
    ID                          : 5
    Format                      : UTF-8
    Codec ID                    : S_TEXT/UTF8
    Codec ID/Info               : UTF-8 Plain Text
    Duration                    : 1 h 34 min
    Bit rate                    : 64 b/s
    Count of elements           : 1116
    Stream size                 : 44.8 KiB (0%)
    Language                    : Spanish
    Default                     : No
    Forced                      : No

  • Peso: 21.4 GiB

Sinopsis

Miguel es un joven con el sueño de convertirse en leyenda de la música a pesar de la prohibición de su familia. Su pasión le llevará a adentrarse en la «Tierra de los Muertos» para conocer su verdadero legado familiar.

Ficha técnica

Video trailer de la película

Enlaces de descarga

Rip de Bluray

Descargar Coco (2017) REMUX 1080p Latino – CMHDD


Aportes de DPeliculasHDmega la pass es:dpeliculashdmega.org Aportes de CinemaniaHD la pass es:cinemaniahdd.com

Películas relacionadas

descargar Coco (2017) REMUX 1080p Latino – CMHDD Full 1080p 1080p gratis, Coco (2017) REMUX 1080p Latino – CMHDD Full 1080p mega 1 link, Coco (2017) REMUX 1080p Latino – CMHDD Full 1080p pelicula completa, descargar Coco (2017) REMUX 1080p Latino – CMHDD Full 1080p gratis en mega.

Coco (2017) REMUX 1080p Latino – CMHDD pelicula full hd, Coco (2017) REMUX 1080p Latino – CMHDD mega latino, Coco (2017) REMUX 1080p Latino – CMHDD 4k latino, Coco (2017) REMUX 1080p Latino – CMHDD pelicula completa, Coco (2017) REMUX 1080p Latino – CMHDD descargar gratis, descargar Coco (2017) REMUX 1080p Latino – CMHDD pelicula latino, Coco (2017) REMUX 1080p Latino – CMHDD 1 link mega, Coco (2017) REMUX 1080p Latino – CMHDD 1 link google drive, Coco (2017) REMUX 1080p Latino – CMHDD hd 1080p latino.
Comentarios 5
  • Luis - 22 julio, 2020

    Disculpa amigo, ¿No tienes esta misma versión de vídeo, Pero con menor peso?

    • Dracarys - 22 julio, 2020

      Busca la Versión Full HD

      • Luis - 23 julio, 2020

        Esa tiene los textos en español?

        • Dracarys - 23 julio, 2020

          si

          • Luis - 24 julio, 2020

            Okey, Muchas Gracias..