×

¿Problemas para descargar con Mozilla, EDGE? Deshabilita la opción "Abrir vinculos en una pestaña nueva" tal como lo muestra ésta imagen.

Cobra Kai (2021) Temporada 3 NF WEB-DL 1080p Latino

992 vistas

Información de Cobra Kai (2021) Temporada 3 NF WEB-DL 1080p Latino

Datos de la película

  • Calidad: WEBDL
  • Audio: Español Latino AC3 5.1 Netflix - Ingles AC3 5.1 Netflix
  • Subtitulos: Español Latino SRT - Ingles SRT
  • Resolución: 1920x1080p
  • Formato: MKV
  • Codec: H.264
  • Encoder: CinemaniaHD
  • Mediainfo: Clic para Mostrar Datos Ver
  • Cobra Kai T03E05 NF WEB-DL 1080p Latino [CNMNHDD].mkv
    Format                      : Matroska
    Format version              : Version 4
    File size                   : 2.03 GiB
    Duration                    : 39 min 23 s
    Overall bit rate mode       : Variable
    Overall bit rate            : 7 369 kb/s
    Movie name                  : Cobra Kai T03E05 - CinemaniaHDD.Net
    Encoded date                : UTC 2021-01-01 20:13:15
    Writing application         : mkvmerge v51.0.0 ('I Wish') 64-bit
    Writing library             : libebml v1.4.0 + libmatroska v1.6.2

    Video
    ID                          : 1
    Format                      : AVC
    Format/Info                 : Advanced Video Codec
    Format profile              : Main@L4
    Format settings             : CABAC / 3 Ref Frames
    Format settings, CABAC      : Yes
    Format settings, Reference  : 3 frames
    Codec ID                    : V_MPEG4/ISO/AVC
    Duration                    : 39 min 22 s
    Bit rate mode               : Variable
    Bit rate                    : 6 596 kb/s
    Maximum bit rate            : 10.2 Mb/s
    Width                       : 1 920 pixels
    Height                      : 1 080 pixels
    Display aspect ratio        : 16:9
    Frame rate mode             : Constant
    Frame rate                  : 23.976 (24000/1001) FPS
    Color space                 : YUV
    Chroma subsampling          : 4:2:0
    Bit depth                   : 8 bits
    Scan type                   : Progressive
    Bits/(Pixel*Frame)          : 0.133
    Stream size                 : 1.81 GiB (89%)
    Title                       : CinemaniaHDD
    Default                     : Yes
    Forced                      : No

    Audio #1
    ID                          : 2
    Format                      : AC-3
    Format/Info                 : Audio Coding 3
    Commercial name             : Dolby Digital
    Codec ID                    : A_AC3
    Duration                    : 39 min 23 s
    Bit rate mode               : Constant
    Bit rate                    : 384 kb/s
    Channel(s)                  : 6 channels
    Channel layout              : L R C LFE Ls Rs
    Sampling rate               : 48.0 kHz
    Frame rate                  : 31.250 FPS (1536 SPF)
    Compression mode            : Lossy
    Stream size                 : 108 MiB (5%)
    Title                       : Español latino [CinemaniaHDD]
    Language                    : Spanish
    Service kind                : Complete Main
    Default                     : Yes
    Forced                      : No

    Audio #2
    ID                          : 3
    Format                      : AC-3
    Format/Info                 : Audio Coding 3
    Commercial name             : Dolby Digital
    Codec ID                    : A_AC3
    Duration                    : 39 min 23 s
    Bit rate mode               : Constant
    Bit rate                    : 384 kb/s
    Channel(s)                  : 6 channels
    Channel layout              : L R C LFE Ls Rs
    Sampling rate               : 48.0 kHz
    Frame rate                  : 31.250 FPS (1536 SPF)
    Compression mode            : Lossy
    Stream size                 : 108 MiB (5%)
    Title                       : Inglés [CinemaniaHDD]
    Language                    : English
    Service kind                : Complete Main
    Default                     : No
    Forced                      : No

    Text #1
    ID                          : 4
    Format                      : UTF-8
    Codec ID                    : S_TEXT/UTF8
    Codec ID/Info               : UTF-8 Plain Text
    Duration                    : 30 min 11 s
    Bit rate                    : 2 b/s
    Count of elements           : 17
    Stream size                 : 583 Bytes (0%)
    Title                       : Forzados [CinemaniaHDD]
    Language                    : Spanish
    Default                     : Yes
    Forced                      : Yes

    Text #2
    ID                          : 5
    Format                      : UTF-8
    Codec ID                    : S_TEXT/UTF8
    Codec ID/Info               : UTF-8 Plain Text
    Duration                    : 37 min 30 s
    Bit rate                    : 49 b/s
    Count of elements           : 470
    Stream size                 : 13.5 KiB (0%)
    Title                       : Español latino [CinemaniaHDD]
    Language                    : Spanish
    Default                     : No
    Forced                      : No

    Text #3
    ID                          : 6
    Format                      : UTF-8
    Codec ID                    : S_TEXT/UTF8
    Codec ID/Info               : UTF-8 Plain Text
    Duration                    : 37 min 8 s
    Bit rate                    : 61 b/s
    Count of elements           : 576
    Stream size                 : 16.9 KiB (0%)
    Title                       : Inglés [CinemaniaHDD]
    Language                    : English
    Default                     : No
    Forced                      : No

  • Peso: 2.03 GiB Aprox ---- 14.8 GiB in 10 Chapters.

Sinopsis

Descargar Cobra Kai (2021) Temporada 3 NF WEB-DL 1080p Latino. Tras el trágico accidente, Miguel lucha por su vida en el hospital. Por otro lado, Robby ha desaparecido y la reputación de Johnny y Daniel está por lo suelos mientras todo el mundo reacciona a la pelea en el West Valley. Para encontrar a Robby, Daniel y Johnny deciden dejar sus diferencias para unir fuerzas.

RESUBIDO!!!

Ficha técnica

Video trailer de la película

Enlaces de descarga

Rip de Bluray

Descargar Cobra Kai (2021) Temporada 3 NF WEB-DL 1080p Latino




Aportes de DPeliculasHDmega la pass es:dpeliculashdmega.org Aportes de CinemaniaHD la pass es:cinemaniahdd.com Aportes recientes:cinemaniahdd.net
Guardado en : Drama , Action & Adventure , Netflix , Series

Películas relacionadas

  • iZombie (2016) Temporada 02 Full HD 1080p Latino

    iZombie (2016) Temporada 02 Full HD 1080p Latino

    2015
    iZombie (2016) Temporada 02 Full HD 1080p Latino

    0h 42m 2015

    Descargar iZombie (2016) Temporada 02 Full HD 1080p Latino. Gira en torno a una estudiante de medicina...

    Director: Rob Thomas

    Género: Crimen

    Actores: Rose McIver

  • iZombie (2016) Temporada 02 REMUX 1080p Latino

    iZombie (2016) Temporada 02 REMUX 1080p Latino

    2015
    iZombie (2016) Temporada 02 REMUX 1080p Latino

    0h 42m 2015

    Descargar iZombie (2016) Temporada 02 REMUX 1080p Latino. Gira en torno a una estudiante de medicina...

    Director: Rob Thomas

    Género: Crimen

    Actores: Rose McIver

  • iZombie (2015) Temporada 01 Full HD 1080p Latino

    iZombie (2015) Temporada 01 Full HD 1080p Latino

    2015
    iZombie (2015) Temporada 01 Full HD 1080p Latino

    0h 42m 2015

    Descargar iZombie (2015) Temporada 01 Full HD 1080p Latino. Gira en torno a una estudiante de medicina...

    Director: Rob Thomas

    Género: Crimen

    Actores: Rose McIver

  • iZombie (2015) Temporada 01 REMUX 1080p Latino

    iZombie (2015) Temporada 01 REMUX 1080p Latino

    2015
    iZombie (2015) Temporada 01 REMUX 1080p Latino

    0h 42m 2015

    Descargar iZombie (2015) Temporada 01 REMUX 1080p Latino. Gira en torno a una estudiante de medicina...

    Director: Rob Thomas

    Género: Crimen

    Actores: Rose McIver

descargar Cobra Kai (2021) Temporada 3 NF WEB-DL 1080p Latino WEBDL 1080p gratis, Cobra Kai (2021) Temporada 3 NF WEB-DL 1080p Latino WEBDL mega 1 link, Cobra Kai (2021) Temporada 3 NF WEB-DL 1080p Latino WEBDL serie completa, descargar Cobra Kai (2021) Temporada 3 NF WEB-DL 1080p Latino WEBDL gratis en mega.

Cobra Kai (2021) Temporada 3 NF WEB-DL 1080p Latino pelicula full hd, Cobra Kai (2021) Temporada 3 NF WEB-DL 1080p Latino mega latino, Cobra Kai (2021) Temporada 3 NF WEB-DL 1080p Latino 4k latino, Cobra Kai (2021) Temporada 3 NF WEB-DL 1080p Latino pelicula completa, Cobra Kai (2021) Temporada 3 NF WEB-DL 1080p Latino descargar gratis, descargar Cobra Kai (2021) Temporada 3 NF WEB-DL 1080p Latino pelicula latino, Cobra Kai (2021) Temporada 3 NF WEB-DL 1080p Latino 1 link mega, Cobra Kai (2021) Temporada 3 NF WEB-DL 1080p Latino 1 link google drive, Cobra Kai (2021) Temporada 3 NF WEB-DL 1080p Latino hd 1080p latino.
Comentarios 0