×

¿Problemas para descargar con Mozilla, EDGE? Deshabilita la opción "Abrir vinculos en una pestaña nueva" tal como lo muestra ésta imagen.

Cobra Kai (2019) Temporada 02 REMUX 1080p Latino

411 vistas

Información de Cobra Kai (2019) Temporada 02 REMUX 1080p Latino

Datos de la película

  • Calidad: Full 1080p
  • Audio: Se especifica abajo de la Sinopsis
  • Subtitulos: Español Latino SRT - Ingles SRT
  • Resolución: 1920x1080p
  • Formato: MKV
  • Codec: H.264
  • Encoder: CinefiloCool
  • Mediainfo: Clic para Mostrar Datos Ver
  • Cobra Kai S02E01 (2019) REMUX 1080p Latino-CMHDD.mkv
    Format                      : Matroska
    Format version              : Version 4
    File size                   : 8.58 GiB
    Duration                    : 35 min 50 s
    Overall bit rate mode       : Variable
    Overall bit rate            : 34.3 Mb/s
    Movie name                  : Cobra Kai S02E01 - Mercy Pt. 2 CinemaniaHDD.Net
    Encoded date                : UTC 2021-01-20 05:30:30
    Writing application         : mkvmerge v51.0.0 ('I Wish') 64-bit
    Writing library             : libebml v1.4.0 + libmatroska v1.6.2
    Attachments                 : CINEMANIAHD.png

    Video
    ID                          : 1
    Format                      : AVC
    Format/Info                 : Advanced Video Codec
    Format profile              : High@L4.1
    Format settings             : CABAC / 4 Ref Frames
    Format settings, CABAC      : Yes
    Format settings, Reference  : 4 frames
    Codec ID                    : V_MPEG4/ISO/AVC
    Duration                    : 35 min 50 s
    Bit rate mode               : Variable
    Bit rate                    : 31.8 Mb/s
    Maximum bit rate            : 36.0 Mb/s
    Width                       : 1 920 pixels
    Height                      : 1 080 pixels
    Display aspect ratio        : 16:9
    Frame rate mode             : Constant
    Frame rate                  : 23.976 (24000/1001) FPS
    Standard                    : Component
    Color space                 : YUV
    Chroma subsampling          : 4:2:0
    Bit depth                   : 8 bits
    Scan type                   : Progressive
    Bits/(Pixel*Frame)          : 0.640
    Stream size                 : 7.97 GiB (93%)
    Title                       : REMUX HD1080p [CinemaniaHDD]
    Writing library             : x264 core 155
    Language                    : English
    Default                     : Yes
    Forced                      : No
    Color range                 : Limited
    Color primaries             : BT.709
    Transfer characteristics    : BT.709
    Matrix coefficients         : BT.709

    Audio #1
    ID                          : 2
    Format                      : AC-3
    Format/Info                 : Audio Coding 3
    Commercial name             : Dolby Digital
    Codec ID                    : A_AC3
    Duration                    : 35 min 50 s
    Bit rate mode               : Constant
    Bit rate                    : 640 kb/s
    Channel(s)                  : 6 channels
    Channel layout              : L R C LFE Ls Rs
    Sampling rate               : 48.0 kHz
    Frame rate                  : 31.250 FPS (1536 SPF)
    Compression mode            : Lossy
    Stream size                 : 164 MiB (2%)
    Title                       : Español Latino [CinemaniaHDD]
    Language                    : Spanish
    Service kind                : Complete Main
    Default                     : Yes
    Forced                      : No

    Audio #2
    ID                          : 3
    Format                      : DTS XLL
    Format/Info                 : Digital Theater Systems
    Commercial name             : DTS-HD Master Audio
    Codec ID                    : A_DTS
    Duration                    : 35 min 50 s
    Bit rate mode               : Variable
    Bit rate                    : 1 773 kb/s
    Channel(s)                  : 6 channels
    Channel layout              : C L R Ls Rs LFE
    Sampling rate               : 48.0 kHz
    Frame rate                  : 93.750 FPS (512 SPF)
    Bit depth                   : 16 bits
    Compression mode            : Lossless
    Stream size                 : 455 MiB (5%)
    Title                       : Ingles [CinemaniaHDD]
    Language                    : English
    Default                     : No
    Forced                      : No

    Text #1
    ID                          : 4
    Format                      : UTF-8
    Codec ID                    : S_TEXT/UTF8
    Codec ID/Info               : UTF-8 Plain Text
    Duration                    : 35 min 19 s
    Bit rate                    : 5 b/s
    Count of elements           : 37
    Stream size                 : 1.39 KiB (0%)
    Title                       : Forzados-SRT [CinemaniaHDD]
    Language                    : Spanish
    Default                     : Yes
    Forced                      : No

    Text #2
    ID                          : 5
    Format                      : UTF-8
    Codec ID                    : S_TEXT/UTF8
    Codec ID/Info               : UTF-8 Plain Text
    Duration                    : 35 min 19 s
    Bit rate                    : 57 b/s
    Count of elements           : 530
    Stream size                 : 14.8 KiB (0%)
    Title                       : Español-SRT [CinemaniaHDD]
    Language                    : Spanish
    Default                     : No
    Forced                      : No

    Text #3
    ID                          : 6
    Format                      : UTF-8
    Codec ID                    : S_TEXT/UTF8
    Codec ID/Info               : UTF-8 Plain Text
    Duration                    : 33 min 45 s
    Bit rate                    : 77 b/s
    Count of elements           : 620
    Stream size                 : 19.0 KiB (0%)
    Title                       : Ingles-SRT [CinemaniaHDD]
    Language                    : English
    Default                     : No
    Forced                      : No

    Menu
    00:00:00.000                : en:Chapter 1
    00:07:04.090                : en:Chapter 2
    00:14:17.190                : en:Chapter 3
    00:21:33.334                : en:Chapter 4
    00:28:42.346                : en:Chapter 5

  • Peso: 4.90 - 8.60 GiB Aprox. C/U | 65 GiB Total.

Sinopsis

Descargar Cobra Kai (2019) Temporada 02 REMUX 1080p Latino. La segunda temporada continúa con la lucha de poder del Dojo Cobra Kai entre John Lawrence y su antiguo sensei, John Kreese. Por otro lado, Daniel abre el Miyagi Do-Karate, con una filosofía contraria al Dojo Cobra Kai, para hacerle frente a su antiguo rival.

Audio:
Español Latino Editado AC3 5.1 Netflix – Ingles DTS-HD 5.1 Bluray
Audio Latino: CinefiloCool Thanks!! 🙂
Al final de cada episodio (en los creditos) el audio Latino contiene partes en ingles, se le agregaron subtitulos forzados para dichas partes 😀

Nota:
RESUBIDO, Disponible Solo para VIP!! 🙂

Ficha técnica

Video trailer de la película

Enlaces de descarga

Rip de Bluray

Descargar Cobra Kai (2019) Temporada 02 REMUX 1080p Latino


Aportes de DPeliculasHDmega la pass es:dpeliculashdmega.org Aportes de CinemaniaHD la pass es:cinemaniahdd.com
Guardado en : Drama , Action & Adventure , Remux , Series

Películas relacionadas

descargar Cobra Kai (2019) Temporada 02 REMUX 1080p Latino Full 1080p 1080p gratis, Cobra Kai (2019) Temporada 02 REMUX 1080p Latino Full 1080p mega 1 link, Cobra Kai (2019) Temporada 02 REMUX 1080p Latino Full 1080p serie completa, descargar Cobra Kai (2019) Temporada 02 REMUX 1080p Latino Full 1080p gratis en mega.

Cobra Kai (2019) Temporada 02 REMUX 1080p Latino pelicula full hd, Cobra Kai (2019) Temporada 02 REMUX 1080p Latino mega latino, Cobra Kai (2019) Temporada 02 REMUX 1080p Latino 4k latino, Cobra Kai (2019) Temporada 02 REMUX 1080p Latino pelicula completa, Cobra Kai (2019) Temporada 02 REMUX 1080p Latino descargar gratis, descargar Cobra Kai (2019) Temporada 02 REMUX 1080p Latino pelicula latino, Cobra Kai (2019) Temporada 02 REMUX 1080p Latino 1 link mega, Cobra Kai (2019) Temporada 02 REMUX 1080p Latino 1 link google drive, Cobra Kai (2019) Temporada 02 REMUX 1080p Latino hd 1080p latino.
Comentarios 0