×

¿Problemas para descargar con Mozilla, EDGE? Deshabilita la opción "Abrir vinculos en una pestaña nueva" tal como lo muestra ésta imagen.

Cobra Kai (2018) Temporada 01 REMUX 1080p Latino

447 vistas

Información de Cobra Kai (2018) Temporada 01 REMUX 1080p Latino

Datos de la película

  • Calidad: Full 1080p
  • Audio: Se especifica abajo de la Sinopsis
  • Subtitulos: Español Latino SRT - Ingles SRT
  • Resolución: 1920x1080p
  • Formato: MKV
  • Codec: H.264
  • Encoder: CinefiloCool
  • Mediainfo: Clic para Mostrar Datos Ver
  • Cobra Kai S01E01 (2018) REMUX 1080p Latino-CMHDD.mkv
    Format                      : Matroska
    Format version              : Version 4
    File size                   : 5.82 GiB
    Duration                    : 27 min 24 s
    Overall bit rate mode       : Variable
    Overall bit rate            : 30.4 Mb/s
    Movie name                  : Cobra Kai S01E01 - Ace Degenerate CinemaniaHDD.Net
    Encoded date                : UTC 2021-01-17 06:04:03
    Writing application         : mkvmerge v51.0.0 ('I Wish') 64-bit
    Writing library             : libebml v1.4.0 + libmatroska v1.6.2
    Attachments                 : CINEMANIAHD.png

    Video
    ID                          : 1
    Format                      : AVC
    Format/Info                 : Advanced Video Codec
    Format profile              : High@L4.1
    Format settings             : CABAC / 4 Ref Frames
    Format settings, CABAC      : Yes
    Format settings, Reference  : 4 frames
    Codec ID                    : V_MPEG4/ISO/AVC
    Duration                    : 27 min 24 s
    Bit rate mode               : Variable
    Bit rate                    : 27.9 Mb/s
    Maximum bit rate            : 36.0 Mb/s
    Width                       : 1 920 pixels
    Height                      : 1 080 pixels
    Display aspect ratio        : 16:9
    Frame rate mode             : Constant
    Frame rate                  : 23.976 (24000/1001) FPS
    Standard                    : Component
    Color space                 : YUV
    Chroma subsampling          : 4:2:0
    Bit depth                   : 8 bits
    Scan type                   : Progressive
    Bits/(Pixel*Frame)          : 0.561
    Stream size                 : 5.34 GiB (92%)
    Title                       : REMUX HD1080p [CinemaniaHDD]
    Writing library             : x264 core 155
    Default                     : Yes
    Forced                      : No
    Color range                 : Limited
    Color primaries             : BT.709
    Transfer characteristics    : BT.709
    Matrix coefficients         : BT.709

    Audio #1
    ID                          : 2
    Format                      : AC-3
    Format/Info                 : Audio Coding 3
    Commercial name             : Dolby Digital
    Codec ID                    : A_AC3
    Duration                    : 27 min 24 s
    Bit rate mode               : Constant
    Bit rate                    : 640 kb/s
    Channel(s)                  : 6 channels
    Channel layout              : L R C LFE Ls Rs
    Sampling rate               : 48.0 kHz
    Frame rate                  : 31.250 FPS (1536 SPF)
    Compression mode            : Lossy
    Stream size                 : 125 MiB (2%)
    Title                       : Español Latino [CinemaniaHDD]
    Language                    : Spanish
    Service kind                : Complete Main
    Default                     : Yes
    Forced                      : No

    Audio #2
    ID                          : 6
    Format                      : DTS XLL
    Format/Info                 : Digital Theater Systems
    Commercial name             : DTS-HD Master Audio
    Codec ID                    : A_DTS
    Duration                    : 27 min 24 s
    Bit rate mode               : Variable
    Bit rate                    : 1 854 kb/s
    Channel(s)                  : 6 channels
    Channel layout              : C L R Ls Rs LFE
    Sampling rate               : 48.0 kHz
    Frame rate                  : 93.750 FPS (512 SPF)
    Bit depth                   : 16 bits
    Compression mode            : Lossless
    Stream size                 : 363 MiB (6%)
    Title                       : Ingles [CinemaniaHDD]
    Language                    : English
    Default                     : No
    Forced                      : No

    Text #1
    ID                          : 3
    Format                      : UTF-8
    Codec ID                    : S_TEXT/UTF8
    Codec ID/Info               : UTF-8 Plain Text
    Duration                    : 27 min 9 s
    Bit rate                    : 4 b/s
    Count of elements           : 26
    Stream size                 : 835 Bytes (0%)
    Title                       : Forzados-SRT [CinemaniaHDD]
    Language                    : Spanish
    Default                     : Yes
    Forced                      : No

    Text #2
    ID                          : 4
    Format                      : UTF-8
    Codec ID                    : S_TEXT/UTF8
    Codec ID/Info               : UTF-8 Plain Text
    Duration                    : 27 min 9 s
    Bit rate                    : 60 b/s
    Count of elements           : 367
    Stream size                 : 12.0 KiB (0%)
    Title                       : Español-SRT [CinemaniaHDD]
    Language                    : Spanish
    Default                     : No
    Forced                      : No

    Text #3
    ID                          : 5
    Format                      : UTF-8
    Codec ID                    : S_TEXT/UTF8
    Codec ID/Info               : UTF-8 Plain Text
    Duration                    : 27 min 9 s
    Bit rate                    : 86 b/s
    Count of elements           : 544
    Stream size                 : 17.3 KiB (0%)
    Title                       : Ingles-SRT [CinemaniaHDD]
    Language                    : English
    Default                     : No
    Forced                      : No

    Menu
    00:00:00.000                : en:Chapter 01
    00:05:26.660                : en:Chapter 02
    00:10:52.360                : en:Chapter 03
    00:16:32.366                : en:Chapter 04
    00:21:48.557                : en:Chapter 05

  • Peso: 4.80 - 7.70 GiB Aprox. C/U | 63.5 GiB Total.

Sinopsis

Descargar Cobra Kai (2018) Temporada 01 REMUX 1080p Latino. La serie sigue la historia 34 años después del campeonato de 1984, John no se encuentra en el mejor momento de su vida, por lo que decide volver a abrir el famoso Dojo Cobra Kai. Es ahí cuando se reencuentra con Daniel, ahora convertido en un hombre de éxito, pero sin la ayuda de Miyagi, no logra encontrar el equilibrio en su vida.

Audio:
Español Latino Editado AC3 5.1 Netflix – Ingles DTS-HD 5.1 Bluray
Audio Latino: CinefiloCool Thanks!! 🙂
Al final de cada episodio (en los creditos) el audio Latino contiene partes en ingles, se le agregaron subtitulos forzados para dichas partes 😀

Nota:
RESUBIDO, Disponible Solo para VIP!! 🙂

Ficha técnica

Video trailer de la película

Enlaces de descarga

Rip de Bluray

Descargar Cobra Kai (2018) Temporada 01 REMUX 1080p Latino


Aportes de DPeliculasHDmega la pass es:dpeliculashdmega.org Aportes de CinemaniaHD la pass es:cinemaniahdd.com
Guardado en : Drama , Action & Adventure , Remux , Series

Películas relacionadas

descargar Cobra Kai (2018) Temporada 01 REMUX 1080p Latino Full 1080p 1080p gratis, Cobra Kai (2018) Temporada 01 REMUX 1080p Latino Full 1080p mega 1 link, Cobra Kai (2018) Temporada 01 REMUX 1080p Latino Full 1080p serie completa, descargar Cobra Kai (2018) Temporada 01 REMUX 1080p Latino Full 1080p gratis en mega.

Cobra Kai (2018) Temporada 01 REMUX 1080p Latino pelicula full hd, Cobra Kai (2018) Temporada 01 REMUX 1080p Latino mega latino, Cobra Kai (2018) Temporada 01 REMUX 1080p Latino 4k latino, Cobra Kai (2018) Temporada 01 REMUX 1080p Latino pelicula completa, Cobra Kai (2018) Temporada 01 REMUX 1080p Latino descargar gratis, descargar Cobra Kai (2018) Temporada 01 REMUX 1080p Latino pelicula latino, Cobra Kai (2018) Temporada 01 REMUX 1080p Latino 1 link mega, Cobra Kai (2018) Temporada 01 REMUX 1080p Latino 1 link google drive, Cobra Kai (2018) Temporada 01 REMUX 1080p Latino hd 1080p latino.
Comentarios 0