×

¿Problemas para descargar con Mozilla, EDGE? Deshabilita la opción "Abrir vinculos en una pestaña nueva" tal como lo muestra ésta imagen.

Cobra Kai (2018) Temporada 01 Full HD 1080p Latino

15 vistas

Información de Cobra Kai (2018) Temporada 01 Full HD 1080p Latino

Datos de la película

  • Calidad: Full 1080p
  • Audio: Se especifica abajo de la Sinopsis
  • Subtitulos: Español Latino SRT - Ingles SRT
  • Resolución: 1920x1080p
  • Formato: MKV
  • Codec: H.264
  • Encoder: CinefiloCool
  • Mediainfo: Clic para Mostrar Datos Ver
  • Cobra Kai S01E01 (2018) Full HD 1080p Latino-CMHDD.mkv
    Format                      : Matroska
    Format version              : Version 4
    File size                   : 2.39 GiB
    Duration                    : 27 min 24 s
    Overall bit rate mode       : Variable
    Overall bit rate            : 12.5 Mb/s
    Movie name                  : Cobra Kai S01E01 - Ace Degenerate CinemaniaHDD.Net
    Encoded date                : UTC 2022-09-22 16:29:47
    Writing application         : mkvmerge v56.1.0 ('My Friend') 64-bit
    Writing library             : libebml v1.4.2 + libmatroska v1.6.4
    Attachments                 : CINEMANIAHD.png

    Video
    ID                          : 1
    Format                      : AVC
    Format/Info                 : Advanced Video Codec
    Format profile              : High@L4.1
    Format settings             : CABAC / 4 Ref Frames
    Format settings, CABAC      : Yes
    Format settings, Reference  : 4 frames
    Codec ID                    : V_MPEG4/ISO/AVC
    Duration                    : 27 min 24 s
    Bit rate                    : 10 000 kb/s
    Width                       : 1 920 pixels
    Height                      : 1 080 pixels
    Display aspect ratio        : 16:9
    Frame rate mode             : Constant
    Frame rate                  : 23.976 (24000/1001) FPS
    Color space                 : YUV
    Chroma subsampling          : 4:2:0
    Bit depth                   : 8 bits
    Scan type                   : Progressive
    Bits/(Pixel*Frame)          : 0.201
    Stream size                 : 1.91 GiB (80%)
    Title                       : Full HD1080p [CinemaniaHDD]
    Writing library             : x264 core 161 r3027 4121277
    Encoding settings           : cabac=1 / ref=4 / deblock=1:-3:-3 / analyse=0x3:0x133 / me=umh / subme=9 / psy=1 / psy_rd=1.00:0.00 / mixed_ref=1 / me_range=32 / chroma_me=1 / trellis=2 / 8x8dct=1 / cqm=0 / deadzone=21,11 / fast_pskip=0 / chroma_qp_offset=-2 / threads=34 / lookahead_threads=2 / sliced_threads=0 / nr=0 / decimate=0 / interlaced=0 / bluray_compat=0 / constrained_intra=0 / bframes=3 / b_pyramid=2 / b_adapt=2 / b_bias=0 / direct=3 / weightb=1 / open_gop=0 / weightp=2 / keyint=250 / keyint_min=23 / scenecut=40 / intra_refresh=0 / rc_lookahead=60 / rc=crf / mbtree=1 / crf=17.0 / qcomp=0.60 / qpmin=0 / qpmax=69 / qpstep=4 / ip_ratio=1.40 / aq=3:0.80
    Default                     : Yes
    Forced                      : Yes
    Color range                 : Limited
    Matrix coefficients         : BT.709

    Audio #1
    ID                          : 2
    Format                      : AC-3
    Format/Info                 : Audio Coding 3
    Commercial name             : Dolby Digital
    Codec ID                    : A_AC3
    Duration                    : 27 min 24 s
    Bit rate mode               : Constant
    Bit rate                    : 640 kb/s
    Channel(s)                  : 6 channels
    Channel layout              : L R C LFE Ls Rs
    Sampling rate               : 48.0 kHz
    Frame rate                  : 31.250 FPS (1536 SPF)
    Compression mode            : Lossy
    Stream size                 : 125 MiB (5%)
    Title                       : Español Latino [CinemaniaHDD]
    Language                    : Spanish
    Service kind                : Complete Main
    Default                     : Yes
    Forced                      : Yes

    Audio #2
    ID                          : 3
    Format                      : DTS XLL
    Format/Info                 : Digital Theater Systems
    Commercial name             : DTS-HD Master Audio
    Codec ID                    : A_DTS
    Duration                    : 27 min 24 s
    Bit rate mode               : Variable
    Bit rate                    : 1 854 kb/s
    Channel(s)                  : 6 channels
    Channel layout              : C L R Ls Rs LFE
    Sampling rate               : 48.0 kHz
    Frame rate                  : 93.750 FPS (512 SPF)
    Bit depth                   : 16 bits
    Compression mode            : Lossless
    Stream size                 : 363 MiB (15%)
    Title                       : Ingles [CinemaniaHDD]
    Language                    : English
    Default                     : No
    Forced                      : No

    Text #1
    ID                          : 4
    Format                      : UTF-8
    Codec ID                    : S_TEXT/UTF8
    Codec ID/Info               : UTF-8 Plain Text
    Duration                    : 27 min 9 s
    Bit rate                    : 4 b/s
    Count of elements           : 26
    Stream size                 : 835 Bytes (0%)
    Title                       : Forzados-SRT [CinemaniaHDD]
    Language                    : Spanish
    Default                     : Yes
    Forced                      : Yes

    Text #2
    ID                          : 5
    Format                      : UTF-8
    Codec ID                    : S_TEXT/UTF8
    Codec ID/Info               : UTF-8 Plain Text
    Duration                    : 27 min 9 s
    Bit rate                    : 60 b/s
    Count of elements           : 367
    Stream size                 : 12.0 KiB (0%)
    Title                       : Español-SRT [CinemaniaHDD]
    Language                    : Spanish
    Default                     : No
    Forced                      : No

    Text #3
    ID                          : 6
    Format                      : UTF-8
    Codec ID                    : S_TEXT/UTF8
    Codec ID/Info               : UTF-8 Plain Text
    Duration                    : 27 min 9 s
    Bit rate                    : 86 b/s
    Count of elements           : 544
    Stream size                 : 17.3 KiB (0%)
    Title                       : Ingles [CinemaniaHDD]
    Language                    : English
    Default                     : No
    Forced                      : No

    Menu
    00:00:00.000                : Chapter 01
    00:05:26.660                : Chapter 02
    00:10:52.360                : Chapter 03
    00:16:32.366                : Chapter 04
    00:21:48.557                : Chapter 05

  • Peso: 1.81 - 2.54 GiB Aprox. C/U | 22.1 GiB Total.

Sinopsis

Descargar Cobra Kai (2018) Temporada 01 Full HD 1080p Latino. La serie sigue la historia 34 años después del campeonato de 1984, John no se encuentra en el mejor momento de su vida, por lo que decide volver a abrir el famoso Dojo Cobra Kai. Es ahí cuando se reencuentra con Daniel, ahora convertido en un hombre de éxito, pero sin la ayuda de Miyagi, no logra encontrar el equilibrio en su vida.

Audio:
Español Latino Editado AC3 5.1 Netflix – Ingles DTS-HD 5.1 Bluray
Audio Latino: CinefiloCool Thanks!! 🙂
Al final de cada episodio (en los creditos) el audio Latino contiene partes en ingles, se le agregaron subtitulos forzados para dichas partes 😀

Ficha técnica

Video trailer de la película

Enlaces de descarga

Rip de Bluray

Descargar Cobra Kai (2018) Temporada 01 Full HD 1080p Latino




Aportes de DPeliculasHDmega la pass es:dpeliculashdmega.org Aportes de CinemaniaHD la pass es:cinemaniahdd.com

Películas relacionadas

descargar Cobra Kai (2018) Temporada 01 Full HD 1080p Latino Full 1080p 1080p gratis, Cobra Kai (2018) Temporada 01 Full HD 1080p Latino Full 1080p mega 1 link, Cobra Kai (2018) Temporada 01 Full HD 1080p Latino Full 1080p serie completa, descargar Cobra Kai (2018) Temporada 01 Full HD 1080p Latino Full 1080p gratis en mega.

Cobra Kai (2018) Temporada 01 Full HD 1080p Latino pelicula full hd, Cobra Kai (2018) Temporada 01 Full HD 1080p Latino mega latino, Cobra Kai (2018) Temporada 01 Full HD 1080p Latino 4k latino, Cobra Kai (2018) Temporada 01 Full HD 1080p Latino pelicula completa, Cobra Kai (2018) Temporada 01 Full HD 1080p Latino descargar gratis, descargar Cobra Kai (2018) Temporada 01 Full HD 1080p Latino pelicula latino, Cobra Kai (2018) Temporada 01 Full HD 1080p Latino 1 link mega, Cobra Kai (2018) Temporada 01 Full HD 1080p Latino 1 link google drive, Cobra Kai (2018) Temporada 01 Full HD 1080p Latino hd 1080p latino.
Comentarios 0