×

¿Problemas para descargar con Mozilla, EDGE? Deshabilita la opción "Abrir vinculos en una pestaña nueva" tal como lo muestra ésta imagen.

Clueless (1995) REMUX 1080p Latino – CMHDD

207 vistas

Información de Clueless (1995) REMUX 1080p Latino – CMHDD

Datos de la película

  • Calidad: Full 1080p
  • Audio: Español Latino AC3 2.0 BLURAY - Ingles DTS 5.1 BLURAY
  • Subtitulos: Español Latino PGS
  • Resolución: 1920x1080p
  • Formato: MKV
  • Codec: H.264
  • Encoder: Dracarys
  • Mediainfo: Clic para Mostrar Datos Ver
  • Format                      : Matroska
    Format version              : Version 4
    File size                   : 28.1 GiB
    Duration                    : 1 h 37 min
    Overall bit rate mode       : Variable
    Overall bit rate            : 41.3 Mb/s
    Movie name                  : Clueless (1995) REMUX 1080p Latino - CMHDD
    Encoded date                : UTC 2021-05-03 01:18:55
    Writing application         : mkvmerge v56.1.0 ('My Friend') 64-bit
    Writing library             : libebml v1.4.2 + libmatroska v1.6.4
    Cover                       : Yes
    Attachments                 : cover.jpg

    Video
    ID                          : 1
    ID in the original source m : 4113 (0x1011)
    Format                      : AVC
    Format/Info                 : Advanced Video Codec
    Format profile              : High@L4.1
    Format settings             : CABAC / 4 Ref Frames
    Format settings, CABAC      : Yes
    Format settings, Reference  : 4 frames
    Codec ID                    : V_MPEG4/ISO/AVC
    Duration                    : 1 h 37 min
    Bit rate mode               : Variable
    Bit rate                    : 38.8 Mb/s
    Maximum bit rate            : 40.0 Mb/s
    Width                       : 1 920 pixels
    Height                      : 1 080 pixels
    Display aspect ratio        : 16:9
    Frame rate mode             : Constant
    Frame rate                  : 23.976 (24000/1001) FPS
    Color space                 : YUV
    Chroma subsampling          : 4:2:0
    Bit depth                   : 8 bits
    Scan type                   : Progressive
    Bits/(Pixel*Frame)          : 0.781
    Stream size                 : 26.4 GiB (94%)
    Default                     : Yes
    Forced                      : No
    Original source medium      : Blu-ray

    Audio #1
    ID                          : 2
    ID in the original source m : 4352 (0x1100)
    Format                      : DTS XLL
    Format/Info                 : Digital Theater Systems
    Commercial name             : DTS-HD Master Audio
    Codec ID                    : A_DTS
    Duration                    : 1 h 37 min
    Bit rate mode               : Variable
    Bit rate                    : 2 252 kb/s
    Channel(s)                  : 6 channels
    Channel layout              : C L R Ls Rs LFE
    Sampling rate               : 48.0 kHz
    Frame rate                  : 93.750 FPS (512 SPF)
    Bit depth                   : 24 bits
    Compression mode            : Lossless
    Stream size                 : 1.53 GiB (5%)
    Language                    : English
    Default                     : No
    Forced                      : No
    Original source medium      : Blu-ray

    Audio #2
    ID                          : 3
    ID in the original source m : 4354 (0x1102)
    Format                      : AC-3
    Format/Info                 : Audio Coding 3
    Commercial name             : Dolby Digital
    Codec ID                    : A_AC3
    Duration                    : 1 h 37 min
    Bit rate mode               : Constant
    Bit rate                    : 224 kb/s
    Channel(s)                  : 2 channels
    Channel layout              : L R
    Sampling rate               : 48.0 kHz
    Frame rate                  : 31.250 FPS (1536 SPF)
    Compression mode            : Lossy
    Stream size                 : 156 MiB (1%)
    Language                    : Spanish
    Service kind                : Complete Main
    Default                     : Yes
    Forced                      : No
    Original source medium      : Blu-ray

    Text
    ID                          : 4
    ID in the original source m : 4611 (0x1203)
    Format                      : PGS
    Muxing mode                 : zlib
    Codec ID                    : S_HDMV/PGS
    Codec ID/Info               : Picture based subtitle format used on BDs/HD-DVDs
    Duration                    : 1 h 31 min
    Bit rate                    : 53.9 kb/s
    Count of elements           : 3232
    Stream size                 : 35.4 MiB (0%)
    Language                    : Spanish
    Default                     : No
    Forced                      : No
    Original source medium      : Blu-ray

    Menu
    00:00:00.000                : Chapter 01
    00:02:57.760                : Chapter 02
    00:07:21.899                : Chapter 03
    00:10:05.313                : Chapter 04
    00:20:36.526                : Chapter 05
    00:26:16.825                : Chapter 06
    00:31:26.259                : Chapter 07
    00:39:33.662                : Chapter 08
    00:44:59.822                : Chapter 09
    00:51:05.437                : Chapter 10
    01:01:01.991                : Chapter 11
    01:11:08.138                : Chapter 12
    01:19:55.957                : Chapter 13
    01:26:43.448                : Chapter 14
    01:32:38.386                : Chapter 15

  • Peso: 28.1 GiB

Sinopsis

Clueless cuenta las desventuras de una chica popular y entrometida de un instituto de Beverly Hill, Cher, que recibe más de lo que esperaba cuando decide darle un cambio de imagen a una estudiante nueva.

Ficha técnica

Video trailer de la película

Enlaces de descarga

Rip de Bluray

Descargar Clueless (1995) REMUX 1080p Latino – CMHDD


Aportes de DPeliculasHDmega la pass es:dpeliculashdmega.org Aportes de CinemaniaHD la pass es:cinemaniahdd.com
Guardado en : Comedia , Romance

Películas relacionadas

descargar Clueless (1995) REMUX 1080p Latino – CMHDD Full 1080p 1080p gratis, Clueless (1995) REMUX 1080p Latino – CMHDD Full 1080p mega 1 link, Clueless (1995) REMUX 1080p Latino – CMHDD Full 1080p pelicula completa, descargar Clueless (1995) REMUX 1080p Latino – CMHDD Full 1080p gratis en mega.

Clueless (1995) REMUX 1080p Latino – CMHDD pelicula full hd, Clueless (1995) REMUX 1080p Latino – CMHDD mega latino, Clueless (1995) REMUX 1080p Latino – CMHDD 4k latino, Clueless (1995) REMUX 1080p Latino – CMHDD pelicula completa, Clueless (1995) REMUX 1080p Latino – CMHDD descargar gratis, descargar Clueless (1995) REMUX 1080p Latino – CMHDD pelicula latino, Clueless (1995) REMUX 1080p Latino – CMHDD 1 link mega, Clueless (1995) REMUX 1080p Latino – CMHDD 1 link google drive, Clueless (1995) REMUX 1080p Latino – CMHDD hd 1080p latino.