Club de Cuervos (2019) Temporada 4 NF 1080p Latino

1.427 vistas
1 estrella2 estrellas3 estrellas4 estrellas5 estrellas (Ninguna valoración todavía)
Cargando…

Información de Club de Cuervos (2019) Temporada 4 NF 1080p Latino

Datos de la película

  • Calidad: WEBDL
  • Audio: Español Latino AC3 5.1 Netflix
  • Subtitulos: Español Latino SRT - Ingles SRT
  • Resolución: 1920x1080
  • Formato: MKV
  • Codec: H.264
  • Encoder: cinemaniahd
  • Mediainfo: Clic para Mostrar Datos Ver
  • Club de Cuervos S04E01 (2019) NF 1080p Latino.mkv
    Format                      : Matroska
    Format version              : Version 4
    File size                   : 1.75 GiB
    Duration                    : 54 min 40 s
    Overall bit rate mode       : Variable
    Overall bit rate            : 4 594 kb/s
    Encoded date                : UTC 2019-01-26 00:17:06 / UTC 2019-01-10 11:23:38
    Writing application         : mkvmerge v30.1.0 ('Forever And More') 64-bit
    Writing library             : libebml v1.3.6 + libmatroska v1.4.9 / Lavf58.0.0

    Video
    ID                          : 1
    Format                      : AVC
    Format/Info                 : Advanced Video Codec
    Format profile              : [email protected]
    Format settings             : CABAC / 3 Ref Frames
    Format settings, CABAC      : Yes
    Format settings, ReFrames   : 3 frames
    Codec ID                    : V_MPEG4/ISO/AVC
    Duration                    : 54 min 40 s
    Bit rate mode               : Variable
    Bit rate                    : 4 220 kb/s
    Maximum bit rate            : 6 330 kb/s
    Width                       : 1 920 pixels
    Height                      : 1 080 pixels
    Display aspect ratio        : 16:9
    Frame rate mode             : Constant
    Frame rate                  : 23.976 (24000/1001) FPS
    Color space                 : YUV
    Chroma subsampling          : 4:2:0
    Bit depth                   : 8 bits
    Scan type                   : Progressive
    Bits/(Pixel*Frame)          : 0.085
    Stream size                 : 1.57 GiB (90%)
    Writing library             : x264 core 148 r2715 7e75228
    Encoding settings           : cabac=1 / ref=3 / deblock=1:0:0 / analyse=0x1:0x111 / me=umh / subme=10 / psy=1 / psy_rd=1.00:0.00 / mixed_ref=1 / me_range=24 / chroma_me=1 / trellis=2 / 8x8dct=0 / cqm=0 / deadzone=21,11 / fast_pskip=1 / chroma_qp_offset=-2 / threads=8 / lookahead_threads=1 / sliced_threads=0 / nr=0 / decimate=1 / interlaced=0 / bluray_compat=0 / stitchable=1 / constrained_intra=0 / bframes=2 / b_pyramid=0 / b_adapt=2 / b_bias=0 / direct=3 / weightb=1 / open_gop=0 / weightp=2 / keyint=48 / keyint_min=25 / scenecut=0 / intra_refresh=0 / rc_lookahead=48 / rc=2pass / mbtree=1 / bitrate=4220 / ratetol=1.0 / qcomp=0.50 / qpmin=6 / qpmax=51 / qpstep=4 / cplxblur=20.0 / qblur=0.5 / vbv_maxrate=6330 / vbv_bufsize=8440 / nal_hrd=vbr / filler=0 / ip_ratio=1.40 / aq=1:1.00
    Default                     : Yes
    Forced                      : No
    Statistics Tags Issue       : mkvmerge v30.1.0 ('Forever And More') 64-bit 2019-01-26 00:17:06 / mkvmerge v30.1.0 ('Forever And More') 64-bit 2019-01-26 00:17:06 / UTC 2019-01-10 11:23:38
    FromStats_BitRate           : 4208373
    FromStats_Duration          : 00:54:40.152000000
    FromStats_FrameCount        : 78645
    FromStats_StreamSize        : 1725513232

    Audio
    ID                          : 2
    Format                      : AC-3
    Format/Info                 : Audio Coding 3
    Commercial name             : Dolby Digital
    Codec ID                    : A_AC3
    Duration                    : 54 min 40 s
    Bit rate mode               : Constant
    Bit rate                    : 384 kb/s
    Channel(s)                  : 6 channels
    Channel layout              : L R C LFE Ls Rs
    Sampling rate               : 48.0 kHz
    Frame rate                  : 31.250 FPS (1536 SPF)
    Bit depth                   : 16 bits
    Compression mode            : Lossy
    Stream size                 : 150 MiB (8%)
    Language                    : Spanish
    Service kind                : Complete Main
    Default                     : Yes
    Forced                      : No
    Encoded date                : UTC 2019-01-10 11:23:38
    Statistics Tags Issue       : mkvmerge v30.1.0 ('Forever And More') 64-bit 2019-01-26 00:17:06 / mkvmerge v30.1.0 ('Forever And More') 64-bit 2019-01-26 00:17:06 / UTC 2019-01-10 11:23:38
    FromStats_BitRate           : 384000
    FromStats_Duration          : 00:54:40.544000000
    FromStats_FrameCount        : 102517
    FromStats_StreamSize        : 157466112

    Text #1
    ID                          : 3
    Format                      : UTF-8
    Codec ID                    : S_TEXT/UTF8
    Codec ID/Info               : UTF-8 Plain Text
    Title                       : English
    Language                    : English
    Default                     : Yes
    Forced                      : Yes
    Statistics Tags Issue       : mkvmerge v30.1.0 ('Forever And More') 64-bit 2019-01-26 00:17:06 / mkvmerge v30.1.0 ('Forever And More') 64-bit 2019-01-26 00:17:06 / UTC 2019-01-10 11:23:38
    FromStats_BitRate           : 72
    FromStats_Duration          : 00:54:24.511000000
    FromStats_FrameCount        : 980
    FromStats_StreamSize        : 29502

    Text #2
    ID                          : 4
    Format                      : UTF-8
    Codec ID                    : S_TEXT/UTF8
    Codec ID/Info               : UTF-8 Plain Text
    Title                       : Spanish
    Language                    : Spanish
    Default                     : No
    Forced                      : No
    Statistics Tags Issue       : mkvmerge v30.1.0 ('Forever And More') 64-bit 2019-01-26 00:17:06 / mkvmerge v30.1.0 ('Forever And More') 64-bit 2019-01-26 00:17:06 / UTC 2019-01-10 11:23:38
    FromStats_BitRate           : 92
    FromStats_Duration          : 00:53:27.037000000
    FromStats_FrameCount        : 1144
    FromStats_StreamSize        : 37180

  • Peso: 1.75 GB por Capitulo (GB en Total)

Sinopsis

El patriarca de una importante familia murió y sus herederos pelean para decidir quién asumirá el control de su adorado equipo de fútbol: Los cuervos de Nuevo Toledo. Egos, temperamentos y balones salen disparados en esta entrega del director, los productores y la estrella de “Nosotros los Nobles”, reunidos para darle vida a esta, aún más, absurda familia.

Ficha técnica

  • Titulo original: Club de Cuervos
  • Fecha de lanzamiento: 07-08-2015 (MX)
  • Director: Gary Alazraky
  • Género: Comedia, Drama, Series
  • Puntuación: 0.0 0 votos
  • Duración:
    0h 40m

Video trailer de la película

Enlaces de descarga

Rip de Bluray

Descargar Club de Cuervos (2019) Temporada 4 NF 1080p Latino




Aportes de DPeliculasHDmega la pass es:dpeliculashdmega.org Aportes de CinemaniaHD la pass es:cinemaniahdd.com
Guardado en : Comedia , Drama , Series

Películas relacionadas

  • Native Son (2019) AMZN WEB-DL 1080p Latino

    2019
    Native Son (2019) AMZN WEB-DL 1080p Latino

    4.0 1h 50m 2019

    Bigger “Big” Thomas (Ashton Sanders) es un joven afroamericano que vive con su madre y hermanos en...

    Director: Rashid Johnson

    Género: Drama

    Actores: Stephen Henderson

  • Dragged Across Concrete (2018) WEB-DL Latino

    2019
    Dragged Across Concrete (2018) WEB-DL Latino

    0.0 2h 39m 2019

    Las películas de S. Craig Zahler se cuecen a fuego lento. Sin embargo, su carrera es fulgurante: ya...

    Director: Sam Harris

    Género: Acción

    Actores: Vivian Ng

  • Miss Bala (2019) WEB-DL 1080p Latino

    2019
    Miss Bala (2019) WEB-DL 1080p Latino

    0.0 1h 44m 2019

    La ganadora de un concurso de belleza se ve obligada a trabajar para un jefe del crimen después de ser...

    Director: Catherine Hardwicke

    Género: Acción

    Actores: Roberto Sosa

  • Amigos por Siempre (2019) WEB-DL 1080p Latino

    2019
    Amigos por Siempre (2019) WEB-DL 1080p Latino

    0.0 2h 3m 2019

    Remake norteamericano del gran éxito del cine francés "Intocable" (2011), que aborda la relación que...

    Director: Neil Burger

    Género: Comedia

    Actores: Ursula Triplett

Comentarios 0