ClownTown (2016) 1080p Latino

1.542 vistas
1 estrella2 estrellas3 estrellas4 estrellas5 estrellas (Ninguna valoración todavía)
Cargando…

Información de ClownTown (2016) 1080p Latino

Datos de la película

  • Calidad: 1080p
  • Audio: Español Latino AC3 2.0 DVD - Ingles AC3 5.1 BLURAY
  • Subtitulos: Español Latino SRT
  • Resolución: 1920X1080p
  • Formato: MKV
  • Codec: H.264
  • Encoder: CinemaniaHD
  • Mediainfo: Clic para Mostrar Datos Ver
  • Format                                   : Matroska
    Format version                           : Version 4 / Version 2
    File size                                : 2.55 GiB
    Duration                                 : 1 h 25 min
    Overall bit rate                         : 4 274 kb/s
    Movie name                               : CinemaniaHDD.com
    Encoded date                             : UTC 2018-01-04 07:32:16 / UTC 2018-01-04T05:46:07Z
    Writing application                      : mkvmerge v15.0.0 ('Duel with the Devil') 64-bit
    Writing library                          : libebml v1.3.5 + libmatroska v1.4.5 / Lavf57.7.2

    Video
    ID                                       : 1
    Format                                   : AVC
    Format/Info                              : Advanced Video Codec
    Format profile                           : High@L4.1
    Format settings                          : CABAC / 4 Ref Frames
    Format settings, CABAC                   : Yes
    Format settings, RefFrames               : 4 frames
    Codec ID                                 : V_MPEG4/ISO/AVC
    Duration                                 : 1 h 25 min
    Bit rate                                 : 3 500 kb/s
    Width                                    : 1 920 pixels
    Height                                   : 1 080 pixels
    Display aspect ratio                     : 16:9
    Frame rate mode                          : Constant
    Frame rate                               : 23.976 (24000/1001) FPS
    Color space                              : YUV
    Chroma subsampling                       : 4:2:0
    Bit depth                                : 8 bits
    Scan type                                : Progressive
    Bits/(Pixel*Frame)                       : 0.070
    Stream size                              : 2.00 GiB (79%)
    Title                                    : ClownTown (2016) 1080p Latino
    Writing library                          : x264 core 148 r2708 86b7198
    Encoding settings                        : cabac=1 / ref=3 / deblock=1:0:0 / analyse=0x3:0x113 / me=hex / subme=7 / psy=1 / psy_rd=1.00:0.00 / mixed_ref=1 / me_range=16 / chroma_me=1 / trellis=1 / 8x8dct=1 / cqm=0 / deadzone=21,11 / fast_pskip=1 / chroma_qp_offset=-2 / threads=34 / lookahead_threads=5 / sliced_threads=0 / nr=0 / decimate=1 / interlaced=0 / bluray_compat=0 / constrained_intra=0 / bframes=3 / b_pyramid=2 / b_adapt=1 / b_bias=0 / direct=1 / weightb=1 / open_gop=0 / weightp=2 / keyint=240 / keyint_min=24 / scenecut=40 / intra_refresh=0 / rc_lookahead=40 / rc=abr / mbtree=1 / bitrate=3500 / ratetol=1.0 / qcomp=0.60 / qpmin=0 / qpmax=69 / qpstep=4 / vbv_maxrate=62500 / vbv_bufsize=78125 / nal_hrd=none / filler=0 / ip_ratio=1.40 / aq=1:1.00
    Language                                 : English
    Default                                  : Yes
    Forced                                   : No
    Color range                              : Limited
    Color primaries                          : BT.709
    Transfer characteristics                 : BT.709
    Matrix coefficients                      : BT.709
    Statistics Tags Issue                    : mkvmerge v15.0.0 ('Duel with the Devil') 64-bit 2018-01-04 07:32:16 / mkvmerge v15.0.0 ('Duel with the Devil') 64-bit 2018-01-04 07:32:16 / UTC 2018-01-04T05:46:07Z
    FromStats_BitRate                        : 3440324
    FromStats_Duration                       : 01:25:19.929000000
    FromStats_FrameCount                     : 122736
    FromStats_StreamSize                     : 2201776973

    Audio #1
    ID                                       : 2
    Format                                   : AC-3
    Format/Info                              : Audio Coding 3
    Format settings, Endianness              : Big
    Codec ID                                 : A_AC3
    Duration                                 : 1 h 25 min
    Bit rate mode                            : Constant
    Bit rate                                 : 192 kb/s
    Channel(s)                               : 2 channels
    Channel positions                        : Front: L R
    Sampling rate                            : 48.0 kHz
    Frame rate                               : 31.250 FPS (1536 SPF)
    Bit depth                                : 16 bits
    Compression mode                         : Lossy
    Delay relative to video                  : -5 ms
    Stream size                              : 117 MiB (4%)
    Language                                 : Spanish
    Service kind                             : Complete Main
    Default                                  : Yes
    Forced                                   : No
    Statistics Tags Issue                    : mkvmerge v15.0.0 ('Duel with the Devil') 64-bit 2018-01-04 07:32:16 / mkvmerge v15.0.0 ('Duel with the Devil') 64-bit 2018-01-04 07:32:16 / UTC 2018-01-04T05:46:07Z
    FromStats_BitRate                        : 192000
    FromStats_Duration                       : 01:25:19.232000000
    FromStats_FrameCount                     : 159976
    FromStats_StreamSize                     : 122861568

    Audio #2
    ID                                       : 3
    Format                                   : AC-3
    Format/Info                              : Audio Coding 3
    Format settings, Endianness              : Big
    Codec ID                                 : A_AC3
    Duration                                 : 1 h 25 min
    Bit rate mode                            : Constant
    Bit rate                                 : 640 kb/s
    Channel(s)                               : 6 channels
    Channel positions                        : Front: L C R, Side: L R, LFE
    Sampling rate                            : 48.0 kHz
    Frame rate                               : 31.250 FPS (1536 SPF)
    Bit depth                                : 16 bits
    Compression mode                         : Lossy
    Delay relative to video                  : -5 ms
    Stream size                              : 391 MiB (15%)
    Language                                 : English
    Service kind                             : Complete Main
    Default                                  : No
    Forced                                   : No
    Statistics Tags Issue                    : mkvmerge v15.0.0 ('Duel with the Devil') 64-bit 2018-01-04 07:32:16 / mkvmerge v15.0.0 ('Duel with the Devil') 64-bit 2018-01-04 07:32:16 / UTC 2018-01-04T05:46:07Z
    FromStats_BitRate                        : 640000
    FromStats_Duration                       : 01:25:20.096000000
    FromStats_FrameCount                     : 160003
    FromStats_StreamSize                     : 409607680

    Text
    ID                                       : 4
    Format                                   : UTF-8
    Codec ID                                 : S_TEXT/UTF8
    Codec ID/Info                            : UTF-8 Plain Text
    Language                                 : Spanish
    Default                                  : No
    Forced                                   : No
    Statistics Tags Issue                    : mkvmerge v15.0.0 ('Duel with the Devil') 64-bit 2018-01-04 07:32:16 / mkvmerge v15.0.0 ('Duel with the Devil') 64-bit 2018-01-04 07:32:16 / UTC 2018-01-04T05:46:07Z
    FromStats_BitRate                        : 31
    FromStats_Duration                       : 01:20:55.692000000
    FromStats_FrameCount                     : 409
    FromStats_StreamSize                     : 18847

    Menu
    00:00:00.000                             : :Chapter 1
    00:10:08.900                             : :Chapter 2
    00:15:26.259                             : :Chapter 3
    00:20:18.801                             : :Chapter 4
    00:27:34.027                             : :Chapter 5
    00:34:47.877                             : :Chapter 6
    00:42:14.574                             : :Chapter 7
    00:52:38.739                             : :Chapter 8
    00:58:51.653                             : :Chapter 9
    01:03:42.235                             : :Chapter 10
    01:12:21.254                             : :Chapter 11
    01:21:49.530                             : :Chapter 12

  • Peso: 2.55 GiB

Sinopsis

Un grupo de amigos quedan atrapados en una pequeña ciudad aparentemente desierta donde se verán acosados por una banda de psicópatas disfrazados de siniestros payasos.

Ficha técnica

  • Titulo original: ClownTown
  • Fecha de lanzamiento: 27-06-2016 (United States of America)
  • Director: Tom Nagel
  • Género: Suspense, Terror
  • Puntuación: 0.0 0 votos
  • Duración:
    1 h 25 min

Video trailer de la película

Enlaces de descarga

Rip de Bluray

Descargar ClownTown (2016) 1080p Latino




Aportes de DPeliculasHDmega la pass es:dpeliculashdmega.org Aportes de CinemaniaHD la pass es:cinemaniahdd.com
Guardado en : Suspense , Terror

Películas relacionadas

  • Cam (2018) NF 1080p Latino

    2018
    Cam (2018) NF 1080p Latino

    0.0 1h 34m 2018

    Alice es una camgirl con un código inamovible, que le permite mantener una cierta distancia con los...

    Director: Rachel Penner

    Género: Suspense

    Actores: Samantha Robinson

  • El Justiciero 2 (2018) Full 1080p Latino

    2018
    El Justiciero 2 (2018) Full 1080p Latino

    5.0 2h 0m 2018

    Descargar El Justiciero 2 (2018) Full 1080p Latino, Mega, Google Drive. Robert McCall (Denzel Washington)...

    Director: Donald Sparks

    Género: Acción

    Actores: Wesley Pereira

  • El Justiciero 2 (2018) 1080p Latino

    2018
    El Justiciero 2 (2018) 1080p Latino

    2.5 2h 0m 2018

    Descargar El Justiciero 2 (2018) 1080p Latino, Mega, Google Drive. Robert McCall (Denzel Washington)...

    Director: Donald Sparks

    Género: Acción

    Actores: Wesley Pereira

Comentarios 0