×

¿Problemas para descargar con Mozilla, EDGE? Deshabilita la opción "Abrir vinculos en una pestaña nueva" tal como lo muestra ésta imagen.

Cloverfield (2008) REMUX 4K HDR Latino – CMHDD

179 vistas

Información de Cloverfield (2008) REMUX 4K HDR Latino – CMHDD

Datos de la película

  • Calidad: 4K HDR
  • Audio: Español Latino AC3 5.1 BLURAY - Ingles AC3 5.1 BLURAY
  • Subtitulos: Español Latino PGS
  • Resolución: 3840x2160p
  • Formato: MKV
  • Codec: H.264
  • Encoder: Dracarys
  • Mediainfo: Clic para Mostrar Datos Ver
  • Format                      : Matroska
    Format version              : Version 4
    File size                   : 50.3 GiB
    Duration                    : 1 h 25 min
    Overall bit rate mode       : Variable
    Overall bit rate            : 83.8 Mb/s
    Movie name                  : Cloverfield (2008) REMUX 4K HDR Latino - CMHDD
    Encoded date                : UTC 2023-12-13 00:59:39
    Writing application         : mkvmerge v47.0.0 ('Black Flag') 64-bit
    Writing library             : libebml v1.3.10 + libmatroska v1.5.2

    Video
    ID                          : 1
    ID in the original source m : 4113 (0x1011)
    Format                      : HEVC
    Format/Info                 : High Efficiency Video Coding
    Format profile              : Main 10@L5.1@High
    HDR format                  : SMPTE ST 2086, HDR10 compatible
    Codec ID                    : V_MPEGH/ISO/HEVC
    Duration                    : 1 h 24 min
    Bit rate                    : 80.2 Mb/s
    Width                       : 3 840 pixels
    Height                      : 2 160 pixels
    Display aspect ratio        : 16:9
    Frame rate mode             : Constant
    Frame rate                  : 23.976 (24000/1001) FPS
    Color space                 : YUV
    Chroma subsampling          : 4:2:0 (Type 2)
    Bit depth                   : 10 bits
    Bits/(Pixel*Frame)          : 0.403
    Stream size                 : 47.4 GiB (94%)
    Language                    : English
    Default                     : Yes
    Forced                      : No
    Color range                 : Limited
    Color primaries             : BT.2020
    Transfer characteristics    : PQ
    Matrix coefficients         : BT.2020 non-constant
    Mastering display color pri : Display P3
    Mastering display luminance : min: 0.0001 cd/m2, max: 1000 cd/m2
    Original source medium      : Blu-ray

    Audio #1
    ID                          : 2
    Format                      : AC-3
    Format/Info                 : Audio Coding 3
    Commercial name             : Dolby Digital
    Codec ID                    : A_AC3
    Duration                    : 1 h 25 min
    Bit rate mode               : Constant
    Bit rate                    : 640 kb/s
    Channel(s)                  : 6 channels
    Channel layout              : L R C LFE Ls Rs
    Sampling rate               : 48.0 kHz
    Frame rate                  : 31.250 FPS (1536 SPF)
    Compression mode            : Lossy
    Delay relative to video     : 993 ms
    Stream size                 : 393 MiB (1%)
    Language                    : Spanish
    Service kind                : Complete Main
    Default                     : Yes
    Forced                      : Yes

    Audio #2
    ID                          : 3
    Format                      : AC-3
    Format/Info                 : Audio Coding 3
    Commercial name             : Dolby Digital
    Codec ID                    : A_AC3
    Duration                    : 1 h 24 min
    Bit rate mode               : Constant
    Bit rate                    : 640 kb/s
    Channel(s)                  : 6 channels
    Channel layout              : L R C LFE Ls Rs
    Sampling rate               : 48.0 kHz
    Frame rate                  : 31.250 FPS (1536 SPF)
    Compression mode            : Lossy
    Stream size                 : 388 MiB (1%)
    Language                    : English
    Service kind                : Complete Main
    Default                     : No
    Forced                      : No

    Audio #3
    ID                          : 4
    Format                      : MLP FBA
    Format/Info                 : Meridian Lossless Packing FBA
    Commercial name             : Dolby TrueHD
    Codec ID                    : A_TRUEHD
    Duration                    : 1 h 24 min
    Bit rate mode               : Variable
    Bit rate                    : 3 463 kb/s
    Maximum bit rate            : 5 544 kb/s
    Channel(s)                  : 6 channels
    Channel layout              : L R C LFE Ls Rs
    Sampling rate               : 48.0 kHz
    Frame rate                  : 1 200.000 FPS (40 SPF)
    Compression mode            : Lossless
    Stream size                 : 2.05 GiB (4%)
    Language                    : English
    Default                     : No
    Forced                      : No

    Text #1
    ID                          : 5
    Format                      : UTF-8
    Codec ID                    : S_TEXT/UTF8
    Codec ID/Info               : UTF-8 Plain Text
    Duration                    : 24 s 191 ms
    Bit rate                    : 79 b/s
    Frame rate                  : 0.207 FPS
    Count of elements           : 5
    Stream size                 : 239 Bytes (0%)
    Language                    : Spanish
    Default                     : Yes
    Forced                      : Yes

    Text #2
    ID                          : 6
    Format                      : UTF-8
    Codec ID                    : S_TEXT/UTF8
    Codec ID/Info               : UTF-8 Plain Text
    Duration                    : 1 h 14 min
    Bit rate                    : 53 b/s
    Frame rate                  : 0.235 FPS
    Count of elements           : 1045
    Stream size                 : 28.8 KiB (0%)
    Language                    : Spanish
    Default                     : No
    Forced                      : No

    Text #3
    ID                          : 7
    Format                      : PGS
    Muxing mode                 : zlib
    Codec ID                    : S_HDMV/PGS
    Codec ID/Info               : Picture based subtitle format used on BDs/HD-DVDs
    Duration                    : 1 h 23 min
    Bit rate                    : 28.6 kb/s
    Frame rate                  : 0.418 FPS
    Count of elements           : 2098
    Stream size                 : 17.1 MiB (0%)
    Language                    : Spanish
    Default                     : No
    Forced                      : No

    Menu
    00:00:00.000                : en:00:00:00.000
    00:05:03.470                : en:00:05:03.470
    00:09:41.372                : en:00:09:41.372
    00:15:02.360                : en:00:15:02.360
    00:19:25.831                : en:00:19:25.831
    00:24:21.835                : en:00:24:21.835
    00:29:22.719                : en:00:29:22.719
    00:33:35.472                : en:00:33:35.472
    00:36:22.639                : en:00:36:22.639
    00:41:25.274                : en:00:41:25.274
    00:45:28.434                : en:00:45:28.434
    00:49:15.911                : en:00:49:15.911
    00:53:34.545                : en:00:53:34.545
    00:59:08.170                : en:00:59:08.170
    01:06:55.553                : en:01:06:55.553
    01:13:44.045                : en:01:13:44.045

     

  • Peso: 50.3 GiB

Sinopsis

La noche en que varios jóvenes neoyorquinos celebran la fiesta de despedida de un amigo en Manhattan, un monstruo del tamaño de un rascacielos llega a la ciudad. Contada desde el punto de vista de la videocámara de uno de ellos, este es el escalofriante documento sobre sus intentos por sobrevivir durante los momentos más increíbles y terroríficos de sus vidas.

Ficha técnica

Video trailer de la película

Enlaces de descarga

Rip de Bluray

Descargar Cloverfield (2008) REMUX 4K HDR Latino – CMHDD




Aportes de DPeliculasHDmega la pass es:dpeliculashdmega.org Aportes de CinemaniaHD la pass es:cinemaniahdd.com Aportes recientes:cinemaniahdd.net
Guardado en : Acción , Ciencia ficción , Suspenso

Películas relacionadas

descargar Cloverfield (2008) REMUX 4K HDR Latino – CMHDD 4K HDR 1080p gratis, Cloverfield (2008) REMUX 4K HDR Latino – CMHDD 4K HDR mega 1 link, Cloverfield (2008) REMUX 4K HDR Latino – CMHDD 4K HDR pelicula completa, descargar Cloverfield (2008) REMUX 4K HDR Latino – CMHDD 4K HDR gratis en mega.

Cloverfield (2008) REMUX 4K HDR Latino – CMHDD pelicula full hd, Cloverfield (2008) REMUX 4K HDR Latino – CMHDD mega latino, Cloverfield (2008) REMUX 4K HDR Latino – CMHDD 4k latino, Cloverfield (2008) REMUX 4K HDR Latino – CMHDD pelicula completa, Cloverfield (2008) REMUX 4K HDR Latino – CMHDD descargar gratis, descargar Cloverfield (2008) REMUX 4K HDR Latino – CMHDD pelicula latino, Cloverfield (2008) REMUX 4K HDR Latino – CMHDD 1 link mega, Cloverfield (2008) REMUX 4K HDR Latino – CMHDD 1 link google drive, Cloverfield (2008) REMUX 4K HDR Latino – CMHDD hd 1080p latino.
Comentarios 0