×

¿Problemas para descargar con Mozilla, EDGE? Deshabilita la opción "Abrir vinculos en una pestaña nueva" tal como lo muestra ésta imagen.

Cloud Atlas (2012) REMUX 1080p Latino-CMHDD

1.254 vistas

Información de Cloud Atlas (2012) REMUX 1080p Latino-CMHDD

Datos de la película

  • Calidad: Full 1080p
  • Audio: Se especifica abajo de la Sinopsis
  • Subtitulos: Español Latino PGS - Ingles PGS
  • Resolución: 1920x1080p
  • Formato: MKV
  • Codec: H.264
  • Encoder: CinefiloCool
  • Mediainfo: Clic para Mostrar Datos Ver
  • Cloud.Atlas.2012.Bluray.REMUX.1080p.AVC.Multi.Latino-CC@CMHDD.mkv
    Format                      : Matroska
    Format version              : Version 4
    File size                   : 32.5 GiB
    Duration                    : 2 h 51 min
    Overall bit rate mode       : Variable
    Overall bit rate            : 27.1 Mb/s
    Movie name                  : Cloud Atlas (2012) CinemaniaHDD.Net
    Encoded date                : UTC 2024-02-08 04:18:36
    Writing application         : mkvmerge v56.1.0 ('My Friend') 64-bit
    Writing library             : libebml v1.4.2 + libmatroska v1.6.4
    Attachments                 : CINEMANIAHD.png

    Video
    ID                          : 1
    Format                      : AVC
    Format/Info                 : Advanced Video Codec
    Format profile              : High@L4.1
    Format settings             : CABAC / 2 Ref Frames
    Format settings, CABAC      : Yes
    Format settings, Reference  : 2 frames
    Format settings, GOP        : M=1, N=10
    Codec ID                    : V_MPEG4/ISO/AVC
    Duration                    : 2 h 51 min
    Bit rate mode               : Variable
    Bit rate                    : 22.0 Mb/s
    Width                       : 1 920 pixels
    Height                      : 1 080 pixels
    Display aspect ratio        : 16:9
    Frame rate mode             : Constant
    Frame rate                  : 23.976 (24000/1001) FPS
    Color space                 : YUV
    Chroma subsampling          : 4:2:0
    Bit depth                   : 8 bits
    Scan type                   : Progressive
    Bits/(Pixel*Frame)          : 0.442
    Stream size                 : 26.4 GiB (81%)
    Title                       : REMUX HD1080p [CinemaniaHDD]
    Default                     : Yes
    Forced                      : Yes

    Audio #1
    ID                          : 2
    Format                      : AC-3
    Format/Info                 : Audio Coding 3
    Commercial name             : Dolby Digital
    Codec ID                    : A_AC3
    Duration                    : 2 h 51 min
    Bit rate mode               : Constant
    Bit rate                    : 640 kb/s
    Channel(s)                  : 6 channels
    Channel layout              : L R C LFE Ls Rs
    Sampling rate               : 48.0 kHz
    Frame rate                  : 31.250 FPS (1536 SPF)
    Compression mode            : Lossy
    Stream size                 : 787 MiB (2%)
    Title                       : Español Latino ORG Warner [CinemaniaHDD]
    Language                    : Spanish
    Service kind                : Complete Main
    Default                     : Yes
    Forced                      : Yes

    Audio #2
    ID                          : 3
    Format                      : AC-3
    Format/Info                 : Audio Coding 3
    Commercial name             : Dolby Digital
    Codec ID                    : A_AC3
    Duration                    : 2 h 51 min
    Bit rate mode               : Constant
    Bit rate                    : 256 kb/s
    Channel(s)                  : 2 channels
    Channel layout              : L R
    Sampling rate               : 48.0 kHz
    Frame rate                  : 31.250 FPS (1536 SPF)
    Compression mode            : Lossy
    Stream size                 : 315 MiB (1%)
    Title                       : Español Latino ReDub Videomax [CinemaniaHDD]
    Language                    : Spanish
    Service kind                : Complete Main
    Default                     : No
    Forced                      : No

    Audio #3
    ID                          : 4
    Format                      : AC-3
    Format/Info                 : Audio Coding 3
    Commercial name             : Dolby Digital
    Codec ID                    : A_AC3
    Duration                    : 2 h 51 min
    Bit rate mode               : Constant
    Bit rate                    : 256 kb/s
    Channel(s)                  : 2 channels
    Channel layout              : L R
    Sampling rate               : 48.0 kHz
    Frame rate                  : 31.250 FPS (1536 SPF)
    Compression mode            : Lossy
    Stream size                 : 315 MiB (1%)
    Title                       : Español Latino ReDub ARG-Focus [CinemaniaHDD]
    Language                    : Spanish
    Service kind                : Complete Main
    Default                     : No
    Forced                      : No

    Audio #4
    ID                          : 5
    Format                      : DTS XLL
    Format/Info                 : Digital Theater Systems
    Commercial name             : DTS-HD Master Audio
    Codec ID                    : A_DTS
    Duration                    : 2 h 51 min
    Bit rate mode               : Variable
    Bit rate                    : 3 911 kb/s
    Channel(s)                  : 6 channels
    Channel layout              : C L R Ls Rs LFE
    Sampling rate               : 48.0 kHz
    Frame rate                  : 93.750 FPS (512 SPF)
    Bit depth                   : 24 bits
    Compression mode            : Lossless
    Stream size                 : 4.70 GiB (14%)
    Title                       : Ingles [CinemaniaHDD]
    Language                    : English
    Default                     : No
    Forced                      : No

    Text #1
    ID                          : 6
    Format                      : PGS
    Muxing mode                 : zlib
    Codec ID                    : S_HDMV/PGS
    Codec ID/Info               : Picture based subtitle format used on BDs/HD-DVDs
    Duration                    : 2 h 51 min
    Bit rate                    : 28.9 kb/s
    Count of elements           : 3850
    Stream size                 : 35.4 MiB (0%)
    Title                       : Español-PGS [CinemaniaHDD]
    Language                    : Spanish
    Default                     : No
    Forced                      : No

    Text #2
    ID                          : 7
    Format                      : PGS
    Muxing mode                 : zlib
    Codec ID                    : S_HDMV/PGS
    Codec ID/Info               : Picture based subtitle format used on BDs/HD-DVDs
    Duration                    : 2 h 51 min
    Bit rate                    : 32.2 kb/s
    Count of elements           : 4320
    Stream size                 : 39.5 MiB (0%)
    Title                       : Ingles [CinemaniaHDD]
    Language                    : English
    Default                     : No
    Forced                      : No

    Text #3
    ID                          : 8
    Format                      : UTF-8
    Codec ID                    : S_TEXT/UTF8
    Codec ID/Info               : UTF-8 Plain Text
    Duration                    : 2 h 32 min
    Bit rate                    : 0 b/s
    Count of elements           : 11
    Stream size                 : 308 Bytes (0%)
    Title                       : Forzados-SRT [CinemaniaHDD]
    Language                    : Spanish
    Default                     : Yes
    Forced                      : Yes

    Text #4
    ID                          : 9
    Format                      : UTF-8
    Codec ID                    : S_TEXT/UTF8
    Codec ID/Info               : UTF-8 Plain Text
    Duration                    : 2 h 41 min
    Bit rate                    : 58 b/s
    Count of elements           : 1812
    Stream size                 : 68.8 KiB (0%)
    Title                       : Español-SRT [CinemaniaHDD]
    Language                    : Spanish
    Default                     : No
    Forced                      : No

    Menu
    00:00:00.000                : 00:00:00.000
    00:09:20.518                : 00:09:20.518
    00:19:06.354                : 00:19:06.354
    00:31:27.969                : 00:31:27.969
    00:39:53.016                : 00:39:53.016
    00:52:32.941                : 00:52:32.941
    01:01:27.309                : 01:01:27.309
    01:12:16.874                : 01:12:16.874
    01:24:08.210                : 01:24:08.210
    01:34:50.476                : 01:34:50.476
    01:46:30.467                : 01:46:30.467
    01:55:37.889                : 01:55:37.889
    02:05:44.829                : 02:05:44.829
    02:15:52.061                : 02:15:52.061
    02:25:53.662                : 02:25:53.662
    02:35:45.253                : 02:35:45.253
    02:42:35.621                : 02:42:35.621

  • Peso: 32.5 GiB

Sinopsis

Descargar Cloud Atlas (2012) REMUX 1080p Latino-CMHDD. El atlas de las nubes es una novela que da la vuelta al mundo y recorre desde el siglo XIX hasta un futuro apocalíptico, a través de seis historias entrelazadas. El relato se abre en 1850 con el regreso del notario estadounidense Adam Ewing desde las islas Chatham a su California natal. Durante el viaje, Ewing traba amistad con un médico, el doctor Goose, que comienza a tratarle de una extraña enfermedad causada por un parásito cerebral… Repentinamente, la acción se traslada a 1931 en Bélgica, donde Robert Frobisher, un compositor bisexual que ha sido desheredado, se introduce en el hogar de un artista enfermizo, su seductora esposa y su núbil hija… De ahí saltamos a la Costa Oeste en la década de los setenta, cuando Luisa Rey destapa una red de avaricia y crimen que pone en peligro su vida… Y, del mismo modo, con idéntica maestría, viajamos a la ignominiosa Inglaterra de nuestros días.

Audio Español Latino AC3 5.1 Dub Warner + AC3 2.0 ReDub Videomax + AC3 2.0 ReDub Focus – Ingles DTS-HD 5.1 Bluray
RESUBIDA!!!

Ficha técnica

Video trailer de la película

Enlaces de descarga

Rip de Bluray

Descargar Cloud Atlas (2012) REMUX 1080p Latino-CMHDD


Aportes de DPeliculasHDmega la pass es:dpeliculashdmega.org Aportes de CinemaniaHD la pass es:cinemaniahdd.com Aportes recientes:cinemaniahdd.net
Guardado en : Ciencia ficción , Drama , Remux

Películas relacionadas

descargar Cloud Atlas (2012) REMUX 1080p Latino-CMHDD Full 1080p 1080p gratis, Cloud Atlas (2012) REMUX 1080p Latino-CMHDD Full 1080p mega 1 link, Cloud Atlas (2012) REMUX 1080p Latino-CMHDD Full 1080p pelicula completa, descargar Cloud Atlas (2012) REMUX 1080p Latino-CMHDD Full 1080p gratis en mega.

Cloud Atlas (2012) REMUX 1080p Latino-CMHDD pelicula full hd, Cloud Atlas (2012) REMUX 1080p Latino-CMHDD mega latino, Cloud Atlas (2012) REMUX 1080p Latino-CMHDD 4k latino, Cloud Atlas (2012) REMUX 1080p Latino-CMHDD pelicula completa, Cloud Atlas (2012) REMUX 1080p Latino-CMHDD descargar gratis, descargar Cloud Atlas (2012) REMUX 1080p Latino-CMHDD pelicula latino, Cloud Atlas (2012) REMUX 1080p Latino-CMHDD 1 link mega, Cloud Atlas (2012) REMUX 1080p Latino-CMHDD 1 link google drive, Cloud Atlas (2012) REMUX 1080p Latino-CMHDD hd 1080p latino.
Comentarios 0