×

¿Problemas para descargar con Mozilla, EDGE? Deshabilita la opción "Abrir vinculos en una pestaña nueva" tal como lo muestra ésta imagen.

Cloud Atlas (2012) OPEN MATTE Full HD 1080p Latino-CMHDD

3.215 vistas

Información de Cloud Atlas (2012) OPEN MATTE Full HD 1080p Latino-CMHDD

Datos de la película

  • Calidad: Full 1080p
  • Audio: Se especifica abajo de la Sinopsis
  • Subtitulos: Español Latino PGS - Ingles PGS
  • Resolución: 1920x1080p
  • Formato: MKV
  • Codec: H.264
  • Encoder: CinefiloCool
  • Mediainfo: Clic para Mostrar Datos Ver
  • Cloud.Atlas.2012.OPEN.MATTE.Bluray.1080p.x264.Multi.Latino-CC@CMHDD.mkv
    Format                      : Matroska
    Format version              : Version 4
    File size                   : 9.52 GiB
    Duration                    : 2 h 51 min
    Overall bit rate            : 7 928 kb/s
    Movie name                  : Cloud Atlas (2012) CinemaniaHDD.Net
    Encoded date                : UTC 2024-02-08 05:34:11
    Writing application         : mkvmerge v56.1.0 ('My Friend') 64-bit
    Writing library             : libebml v1.4.2 + libmatroska v1.6.4
    Attachments                 : CINEMANIAHD.png

    Video
    ID                          : 1
    Format                      : AVC
    Format/Info                 : Advanced Video Codec
    Format profile              : High@L4.1
    Format settings             : CABAC / 4 Ref Frames
    Format settings, CABAC      : Yes
    Format settings, Reference  : 4 frames
    Codec ID                    : V_MPEG4/ISO/AVC
    Duration                    : 2 h 51 min
    Bit rate                    : 6 300 kb/s
    Width                       : 1 920 pixels
    Height                      : 1 080 pixels
    Display aspect ratio        : 16:9
    Frame rate mode             : Constant
    Frame rate                  : 23.976 (24000/1001) FPS
    Color space                 : YUV
    Chroma subsampling          : 4:2:0
    Bit depth                   : 8 bits
    Scan type                   : Progressive
    Bits/(Pixel*Frame)          : 0.127
    Stream size                 : 7.56 GiB (79%)
    Title                       : HD1080p [CinemaniaHDD]
    Writing library             : x264 core 148 r2638 7599210
    Encoding settings           : cabac=1 / ref=4 / deblock=1:-2:-2 / analyse=0x3:0x133 / me=umh / subme=11 / psy=1 / psy_rd=1.00:0.20 / mixed_ref=1 / me_range=32 / chroma_me=1 / trellis=2 / 8x8dct=1 / cqm=0 / deadzone=21,11 / fast_pskip=1 / chroma_qp_offset=-3 / threads=6 / lookahead_threads=1 / sliced_threads=0 / nr=0 / decimate=1 / interlaced=0 / bluray_compat=0 / constrained_intra=0 / bframes=10 / b_pyramid=2 / b_adapt=2 / b_bias=0 / direct=3 / weightb=1 / open_gop=0 / weightp=2 / keyint=250 / keyint_min=23 / scenecut=40 / intra_refresh=0 / rc_lookahead=60 / rc=2pass / mbtree=1 / bitrate=6300 / ratetol=1.0 / qcomp=0.60 / qpmin=0 / qpmax=69 / qpstep=4 / cplxblur=20.0 / qblur=0.5 / ip_ratio=1.40 / aq=1:1.00
    Language                    : English
    Default                     : Yes
    Forced                      : Yes

    Audio #1
    ID                          : 2
    Format                      : AC-3
    Format/Info                 : Audio Coding 3
    Commercial name             : Dolby Digital
    Codec ID                    : A_AC3
    Duration                    : 2 h 51 min
    Bit rate mode               : Constant
    Bit rate                    : 640 kb/s
    Channel(s)                  : 6 channels
    Channel layout              : L R C LFE Ls Rs
    Sampling rate               : 48.0 kHz
    Frame rate                  : 31.250 FPS (1536 SPF)
    Compression mode            : Lossy
    Stream size                 : 787 MiB (8%)
    Title                       : Español Latino ORG Warner [CinemaniaHDD]
    Language                    : Spanish
    Service kind                : Complete Main
    Default                     : Yes
    Forced                      : Yes

    Audio #2
    ID                          : 3
    Format                      : AC-3
    Format/Info                 : Audio Coding 3
    Commercial name             : Dolby Digital
    Codec ID                    : A_AC3
    Duration                    : 2 h 51 min
    Bit rate mode               : Constant
    Bit rate                    : 256 kb/s
    Channel(s)                  : 2 channels
    Channel layout              : L R
    Sampling rate               : 48.0 kHz
    Frame rate                  : 31.250 FPS (1536 SPF)
    Compression mode            : Lossy
    Stream size                 : 315 MiB (3%)
    Title                       : Español Latino ReDub Videomax [CinemaniaHDD]
    Language                    : Spanish
    Service kind                : Complete Main
    Default                     : No
    Forced                      : No

    Audio #3
    ID                          : 4
    Format                      : AC-3
    Format/Info                 : Audio Coding 3
    Commercial name             : Dolby Digital
    Codec ID                    : A_AC3
    Duration                    : 2 h 51 min
    Bit rate mode               : Constant
    Bit rate                    : 256 kb/s
    Channel(s)                  : 2 channels
    Channel layout              : L R
    Sampling rate               : 48.0 kHz
    Frame rate                  : 31.250 FPS (1536 SPF)
    Compression mode            : Lossy
    Stream size                 : 315 MiB (3%)
    Title                       : Español Latino ReDub ARG-Focus [CinemaniaHDD]
    Language                    : Spanish
    Service kind                : Complete Main
    Default                     : No
    Forced                      : No

    Audio #4
    ID                          : 5
    Format                      : AC-3
    Format/Info                 : Audio Coding 3
    Commercial name             : Dolby Digital
    Codec ID                    : A_AC3
    Duration                    : 2 h 51 min
    Bit rate mode               : Constant
    Bit rate                    : 448 kb/s
    Channel(s)                  : 6 channels
    Channel layout              : L R C LFE Ls Rs
    Sampling rate               : 48.0 kHz
    Frame rate                  : 31.250 FPS (1536 SPF)
    Compression mode            : Lossy
    Stream size                 : 551 MiB (6%)
    Title                       : Ingles [CinemaniaHDD]
    Language                    : English
    Service kind                : Complete Main
    Default                     : No
    Forced                      : No

    Text #1
    ID                          : 6
    Format                      : PGS
    Muxing mode                 : zlib
    Codec ID                    : S_HDMV/PGS
    Codec ID/Info               : Picture based subtitle format used on BDs/HD-DVDs
    Duration                    : 2 h 51 min
    Bit rate                    : 28.9 kb/s
    Count of elements           : 3850
    Stream size                 : 35.4 MiB (0%)
    Title                       : Español-PGS [CinemaniaHDD]
    Language                    : Spanish
    Default                     : No
    Forced                      : No

    Text #2
    ID                          : 7
    Format                      : PGS
    Muxing mode                 : zlib
    Codec ID                    : S_HDMV/PGS
    Codec ID/Info               : Picture based subtitle format used on BDs/HD-DVDs
    Duration                    : 2 h 51 min
    Bit rate                    : 32.2 kb/s
    Count of elements           : 4320
    Stream size                 : 39.5 MiB (0%)
    Title                       : Ingles [CinemaniaHDD]
    Language                    : English
    Default                     : No
    Forced                      : No

    Text #3
    ID                          : 8
    Format                      : UTF-8
    Codec ID                    : S_TEXT/UTF8
    Codec ID/Info               : UTF-8 Plain Text
    Duration                    : 2 h 32 min
    Bit rate                    : 0 b/s
    Count of elements           : 11
    Stream size                 : 308 Bytes (0%)
    Title                       : Forzados-SRT [CinemaniaHDD]
    Language                    : Spanish
    Default                     : Yes
    Forced                      : Yes

    Text #4
    ID                          : 9
    Format                      : UTF-8
    Codec ID                    : S_TEXT/UTF8
    Codec ID/Info               : UTF-8 Plain Text
    Duration                    : 2 h 41 min
    Bit rate                    : 58 b/s
    Count of elements           : 1812
    Stream size                 : 68.8 KiB (0%)
    Title                       : Español-SRT [CinemaniaHDD]
    Language                    : Spanish
    Default                     : No
    Forced                      : No

    Menu
    00:00:00.000                : :Chapter 01
    00:09:20.518                : :Chapter 02
    00:19:06.353                : :Chapter 03
    00:31:27.969                : :Chapter 04
    00:39:53.015                : :Chapter 05
    00:52:32.941                : :Chapter 06
    01:01:27.308                : :Chapter 07
    01:12:16.874                : :Chapter 08
    01:24:08.209                : :Chapter 09
    01:34:50.476                : :Chapter 10
    01:46:30.467                : :Chapter 11
    01:55:37.889                : :Chapter 12
    02:05:44.828                : :Chapter 13
    02:15:52.060                : :Chapter 14
    02:25:53.661                : :Chapter 15
    02:35:45.252                : :Chapter 16
    02:42:35.620                : :Chapter 17

  • Peso: 9.52 GiB

Sinopsis

Descargar Cloud Atlas (2012) OPEN MATTE Full HD 1080p Latino-CMHDD. El atlas de las nubes es una novela que da la vuelta al mundo y recorre desde el siglo XIX hasta un futuro apocalíptico, a través de seis historias entrelazadas. El relato se abre en 1850 con el regreso del notario estadounidense Adam Ewing desde las islas Chatham a su California natal. Durante el viaje, Ewing traba amistad con un médico, el doctor Goose, que comienza a tratarle de una extraña enfermedad causada por un parásito cerebral… Repentinamente, la acción se traslada a 1931 en Bélgica, donde Robert Frobisher, un compositor bisexual que ha sido desheredado, se introduce en el hogar de un artista enfermizo, su seductora esposa y su núbil hija… De ahí saltamos a la Costa Oeste en la década de los setenta, cuando Luisa Rey destapa una red de avaricia y crimen que pone en peligro su vida… Y, del mismo modo, con idéntica maestría, viajamos a la ignominiosa Inglaterra de nuestros días.

Audio Español Latino AC3 5.1 Dub Warner + AC3 2.0 ReDub Videomax + AC3 2.0 ReDub Focus – Ingles AC3 5.1 Bluray

Ficha técnica

Video trailer de la película

Enlaces de descarga

Rip de Bluray

Descargar Cloud Atlas (2012) OPEN MATTE Full HD 1080p Latino-CMHDD




Aportes de DPeliculasHDmega la pass es:dpeliculashdmega.org Aportes de CinemaniaHD la pass es:cinemaniahdd.com Aportes recientes:cinemaniahdd.net

Películas relacionadas

  • El Oso (2022) Temporada 2 WEB-DL 1080p Latino

    El Oso (2022) Temporada 2 WEB-DL 1080p Latino

    2022
    El Oso (2022) Temporada 2 WEB-DL 1080p Latino

    0h 0m 2022

    Descargar El Oso (2022) Temporada 2 WEB-DL 1080p Latino. Carmy, un joven chef de alta cocina, vuelve...

    Director: Christopher Storer

    Género: Comedia

    Actores: Matty Matheson

  • El Oso (2022) Temporada 1 WEB-DL 1080p Latino

    El Oso (2022) Temporada 1 WEB-DL 1080p Latino

    2022
    El Oso (2022) Temporada 1 WEB-DL 1080p Latino

    0h 0m 2022

    Descargar El Oso (2022) Temporada 1 WEB-DL 1080p Latino. Carmy, un joven chef de alta cocina, vuelve...

    Director: Christopher Storer

    Género: Comedia

    Actores: Matty Matheson

  • Wolves (2022) AMZN WEB-DL 1080p Latino

    Wolves (2022) AMZN WEB-DL 1080p Latino

    2022
    Wolves (2022) AMZN WEB-DL 1080p Latino

    1h 43m 2022

    Un joven solitario se depara con una serie de crímenes sin resolver, que involucran animales mutilados...

    Director: Danny Dunlop

    Género: Crimen

    Actores: Rod Keith

  • Tarot (2024) Full HD 1080p Latino-CMHDD

    Tarot (2024) Full HD 1080p Latino-CMHDD

    2024
    Tarot (2024) Full HD 1080p Latino-CMHDD

    1h 32m 2024

    Descargar Tarot (2024) Full HD 1080p Latino-CMHDD. Un grupo de amigos de la universidad comienzan a morir...

    Director: Spenser Cohen

    Género: FULL 1080p Plateadas

    Actores: Wolfgang Novogratz

descargar Cloud Atlas (2012) OPEN MATTE Full HD 1080p Latino-CMHDD Full 1080p 1080p gratis, Cloud Atlas (2012) OPEN MATTE Full HD 1080p Latino-CMHDD Full 1080p mega 1 link, Cloud Atlas (2012) OPEN MATTE Full HD 1080p Latino-CMHDD Full 1080p pelicula completa, descargar Cloud Atlas (2012) OPEN MATTE Full HD 1080p Latino-CMHDD Full 1080p gratis en mega.

Cloud Atlas (2012) OPEN MATTE Full HD 1080p Latino-CMHDD pelicula full hd, Cloud Atlas (2012) OPEN MATTE Full HD 1080p Latino-CMHDD mega latino, Cloud Atlas (2012) OPEN MATTE Full HD 1080p Latino-CMHDD 4k latino, Cloud Atlas (2012) OPEN MATTE Full HD 1080p Latino-CMHDD pelicula completa, Cloud Atlas (2012) OPEN MATTE Full HD 1080p Latino-CMHDD descargar gratis, descargar Cloud Atlas (2012) OPEN MATTE Full HD 1080p Latino-CMHDD pelicula latino, Cloud Atlas (2012) OPEN MATTE Full HD 1080p Latino-CMHDD 1 link mega, Cloud Atlas (2012) OPEN MATTE Full HD 1080p Latino-CMHDD 1 link google drive, Cloud Atlas (2012) OPEN MATTE Full HD 1080p Latino-CMHDD hd 1080p latino.
Comentarios 4