×

¿Problemas para descargar con Mozilla, EDGE? Deshabilita la opción "Abrir vinculos en una pestaña nueva" tal como lo muestra ésta imagen.

Clínica de Zombies (2019) REMUX 1080p Latino

220 vistas

Información de Clínica de Zombies (2019) REMUX 1080p Latino

Datos de la película

  • Calidad: Full 1080p
  • Audio: Se especifica abajo de la Sinopsis
  • Subtitulos: Español Latino SRT- FORZADOS SRT
  • Resolución: 1920x1080p
  • Formato: MKV
  • Codec: H.264
  • Encoder: Melkor
  • Mediainfo: Clic para Mostrar Datos Ver
  • Clinicia De Zombies (2019) BDUSA REMUX 1080p Latino.mkv
    Format                      : Matroska
    Format version              : Version 4
    File size                   : 19.8 GiB
    Duration                    : 1 h 29 min
    Overall bit rate mode       : Variable
    Overall bit rate            : 31.8 Mb/s
    Movie name                  : Yummy (2019) CiemaniaHDD.Net
    Encoded date                : UTC 2021-05-13 03:43:28
    Writing application         : mkvmerge v56.1.0 ('My Friend') 64-bit
    Writing library             : libebml v1.4.2 + libmatroska v1.6.4
    Attachments                 : CINEMANIAHD.png

    Video
    ID                          : 1
    Format                      : AVC
    Format/Info                 : Advanced Video Codec
    Format profile              : High@L4.1
    Format settings             : CABAC / 4 Ref Frames
    Format settings, CABAC      : Yes
    Format settings, Reference  : 4 frames
    Codec ID                    : V_MPEG4/ISO/AVC
    Duration                    : 1 h 29 min
    Bit rate mode               : Variable
    Bit rate                    : 29.5 Mb/s
    Maximum bit rate            : 35.0 Mb/s
    Width                       : 1 920 pixels
    Height                      : 1 080 pixels
    Display aspect ratio        : 16:9
    Frame rate mode             : Constant
    Frame rate                  : 23.976 (23976/1000) FPS
    Original frame rate         : 23.976 (24000/1001) FPS
    Color space                 : YUV
    Chroma subsampling          : 4:2:0
    Bit depth                   : 8 bits
    Scan type                   : Progressive
    Bits/(Pixel*Frame)          : 0.594
    Stream size                 : 18.4 GiB (93%)
    Title                       : REMUX HD1080p [CinemaniaHDD]
    Default                     : Yes
    Forced                      : Yes

    Audio #1
    ID                          : 2
    Format                      : AC-3
    Format/Info                 : Audio Coding 3
    Commercial name             : Dolby Digital
    Codec ID                    : A_AC3
    Duration                    : 1 h 29 min
    Bit rate mode               : Constant
    Bit rate                    : 256 kb/s
    Channel(s)                  : 2 channels
    Channel layout              : L R
    Sampling rate               : 48.0 kHz
    Frame rate                  : 31.250 FPS (1536 SPF)
    Compression mode            : Lossy
    Stream size                 : 163 MiB (1%)
    Title                       : Español Latino [CinemaniaHDD]
    Language                    : Spanish
    Service kind                : Complete Main
    Default                     : Yes
    Forced                      : Yes

    Audio #2
    ID                          : 3
    ID in the original source m : 4352 (0x1100)
    Format                      : DTS XLL
    Format/Info                 : Digital Theater Systems
    Commercial name             : DTS-HD Master Audio
    Codec ID                    : A_DTS
    Duration                    : 1 h 29 min
    Bit rate mode               : Variable
    Bit rate                    : 2 047 kb/s
    Channel(s)                  : 6 channels
    Channel layout              : C L R Ls Rs LFE
    Sampling rate               : 48.0 kHz
    Frame rate                  : 93.750 FPS (512 SPF)
    Bit depth                   : 16 bits
    Compression mode            : Lossless
    Stream size                 : 1.27 GiB (6%)
    Title                       : Neerlandes [CinemaniaHDD]
    Language                    : Dutch
    Default                     : No
    Forced                      : No
    Original source medium      : Blu-ray

    Text #1
    ID                          : 4
    Format                      : UTF-8
    Codec ID                    : S_TEXT/UTF8
    Codec ID/Info               : UTF-8 Plain Text
    Duration                    : 53 min 51 s
    Bit rate                    : 0 b/s
    Count of elements           : 2
    Stream size                 : 17.0 Bytes (0%)
    Title                       : Forzados-SRT [CinemaniaHDD]
    Language                    : Spanish
    Default                     : Yes
    Forced                      : Yes

    Text #2
    ID                          : 5
    Format                      : UTF-8
    Codec ID                    : S_TEXT/UTF8
    Codec ID/Info               : UTF-8 Plain Text
    Duration                    : 1 h 24 min
    Bit rate                    : 33 b/s
    Count of elements           : 855
    Stream size                 : 20.6 KiB (0%)
    Title                       : Español-SRT [CinemaniaHDD]
    Language                    : Spanish
    Default                     : No
    Forced                      : No

    Text #3
    ID                          : 6
    ID in the original source m : 4608 (0x1200)
    Format                      : PGS
    Muxing mode                 : zlib
    Codec ID                    : S_HDMV/PGS
    Codec ID/Info               : Picture based subtitle format used on BDs/HD-DVDs
    Duration                    : 1 h 18 min
    Bit rate                    : 2 600 b/s
    Count of elements           : 188
    Stream size                 : 1.47 MiB (0%)
    Title                       : Ingles-PGS [CinemaniaHDD]
    Language                    : English
    Default                     : No
    Forced                      : No
    Original source medium      : Blu-ray

    Menu
    00:00:00.000                : Chapter 01 Morgue Madness
    00:02:57.468                : Chapter 02 Roadkill
    00:07:27.947                : Chapter 03 Klinika Krawczyk
    00:17:16.994                : Chapter 04 Are You Okay?
    00:24:30.218                : Chapter 05 Stairway to Hell
    00:32:23.024                : Chapter 06 Wake Up
    00:41:31.780                : Chapter 07 God is Punishing Us
    00:48:55.724                : Chapter 08 Mama Mia!
    00:58:47.982                : Chapter 09 The Only Way Out
    01:05:51.989                : Chapter 10 Risk of Contamination
    01:14:15.075                : Chapter 11 Making a Break
    01:22:45.543                : Chapter 12 Pookie?

  • Peso: 19.8 GiB

Sinopsis

Descargar Clínica de Zombies (2019) REMUX 1080p Latino. Yummy es una orgía de sangre, violencia y diversión en la que una pareja joven viaja a un hospital en mal estado de Europa del Este para someterse a una cirugía plástica. La joven quiere una reducción de senos. Su madre viene para otro lavado de cara. Vagando por una sala abandonada, el novio se topa con una mujer joven, amordazada y atada a una mesa de operaciones; ella es el resultado de un tratamiento experimental de rejuvenecimiento. Él la libera, pero no se da cuenta de que acaba de causar el brote de un virus que transformará a los médicos, pacientes y su suegra en zombis sedientos de sangre.

Español Latino AC3 2.0 – Neerlandés DTS-HD 5.1 Bluray

Remux Directamente Del Bluray USA Sin Parches o Alteración Alguna
Disponible Solo Para VIP!!
 🙂

Ficha técnica

Video trailer de la película

Enlaces de descarga

Rip de Bluray

Descargar Clínica de Zombies (2019) REMUX 1080p Latino


Aportes de DPeliculasHDmega la pass es:dpeliculashdmega.org Aportes de CinemaniaHD la pass es:cinemaniahdd.com
Guardado en : Acción , Comedia , Remux , Terror

Películas relacionadas

  • Jaula Mental (2022) REMUX 1080p Latino

    Jaula Mental (2022) REMUX 1080p Latino

    2022
    Jaula Mental (2022) REMUX 1080p Latino

    1h 47m 2022

    Descargar Jaula Mental (2022) REMUX 1080p Latino. Cuando un asesino que imita otros crímenes comienza...

    Director: Mauro Borrelli

    Género: Crimen

    Actores: Victoria Fox

  • Transfusion (2023) REMUX 1080p Latino

    Transfusion (2023) REMUX 1080p Latino

    2023
    Transfusion (2023) REMUX 1080p Latino

    1h 45m 2023

    Descargar Transfusion (2023) REMUX 1080p Latino. Un antiguo agente de las Fuerzas Especiales se ve empujado...

    Director: Matt Nable

    Género: Crimen

    Actores: Trystan Go

  • Gladiador (2000) EXTENDED CUT 1080p Latino

    Gladiador (2000) EXTENDED CUT 1080p Latino

    2000
    Gladiador (2000) EXTENDED CUT 1080p Latino

    2h 35m 2000

    Gladiador (2000) EXTENDED CUT 1080p Latino. Máximo, General de las Legiones Romanas, es querido por...

    Director: Ridley Scott

    Género: Acción

    Actores: Tony Curran

  • Gladiador (2000) EXTENDED CUT Full HD 1080p Latino

    Gladiador (2000) EXTENDED CUT Full HD 1080p Latino

    2000
    Gladiador (2000) EXTENDED CUT Full HD 1080p Latino

    2h 35m 2000

    Descargar Gladiador (2000) [Extended Cut] Full HD 1080p Latino. Máximo, General de las Legiones Romanas,...

    Director: Ridley Scott

    Género: Acción

    Actores: Tony Curran

descargar Clínica de Zombies (2019) REMUX 1080p Latino Full 1080p 1080p gratis, Clínica de Zombies (2019) REMUX 1080p Latino Full 1080p mega 1 link, Clínica de Zombies (2019) REMUX 1080p Latino Full 1080p pelicula completa, descargar Clínica de Zombies (2019) REMUX 1080p Latino Full 1080p gratis en mega.

Clínica de Zombies (2019) REMUX 1080p Latino pelicula full hd, Clínica de Zombies (2019) REMUX 1080p Latino mega latino, Clínica de Zombies (2019) REMUX 1080p Latino 4k latino, Clínica de Zombies (2019) REMUX 1080p Latino pelicula completa, Clínica de Zombies (2019) REMUX 1080p Latino descargar gratis, descargar Clínica de Zombies (2019) REMUX 1080p Latino pelicula latino, Clínica de Zombies (2019) REMUX 1080p Latino 1 link mega, Clínica de Zombies (2019) REMUX 1080p Latino 1 link google drive, Clínica de Zombies (2019) REMUX 1080p Latino hd 1080p latino.
Comentarios 0