Clínica de Zombies (2019) PLACEBO Full HD 1080p Latino

35 vistas
1 estrella2 estrellas3 estrellas4 estrellas5 estrellas (Ninguna valoración todavía)
Cargando...

Información de Clínica de Zombies (2019) PLACEBO Full HD 1080p Latino

Datos de la película

  • Calidad: Full 1080p
  • Audio: Se especifica abajo de la Sinopsis
  • Subtitulos: Español Latino SRT- FORZADOS SRT
  • Resolución: 1920x1080p
  • Formato: MKV
  • Codec: H.264
  • Encoder: Melkor
  • Mediainfo: Clic para Mostrar Datos Ver
  • Clinicia De Zombies (2019) BDUSA PLACEBO 1080p Latino.mkv
    Format                      : Matroska
    Format version              : Version 4
    File size                   : 5.05 GiB
    Duration                    : 1 h 29 min
    Overall bit rate mode       : Variable
    Overall bit rate            : 8 109 kb/s
    Movie name                  : Yummy (2019) CiemaniaHDD.Net
    Encoded date                : UTC 2021-05-13 08:57:56
    Writing application         : mkvmerge v56.1.0 ('My Friend') 64-bit
    Writing library             : libebml v1.4.2 + libmatroska v1.6.4
    Attachments                 : CINEMANIAHD.png

    Video
    ID                          : 1
    Format                      : AVC
    Format/Info                 : Advanced Video Codec
    Format profile              : High@L4.1
    Format settings             : CABAC / 4 Ref Frames
    Format settings, CABAC      : Yes
    Format settings, Reference  : 4 frames
    Codec ID                    : V_MPEG4/ISO/AVC
    Duration                    : 1 h 29 min
    Bit rate                    : 5 803 kb/s
    Width                       : 1 920 pixels
    Height                      : 1 080 pixels
    Display aspect ratio        : 16:9
    Frame rate mode             : Constant
    Frame rate                  : 23.976 (24000/1001) FPS
    Color space                 : YUV
    Chroma subsampling          : 4:2:0
    Bit depth                   : 8 bits
    Scan type                   : Progressive
    Bits/(Pixel*Frame)          : 0.117
    Stream size                 : 3.61 GiB (72%)
    Title                       : Full HD1080p [CinemaniaHDD]
    Writing library             : x264 core 157 r2935 545de2f
    Encoding settings           : cabac=1 / ref=4 / deblock=1:0:0 / analyse=0x3:0x133 / me=tesa / subme=11 / psy=1 / psy_rd=1.00:0.00 / mixed_ref=1 / me_range=24 / chroma_me=1 / trellis=2 / 8x8dct=1 / cqm=0 / deadzone=21,11 / fast_pskip=0 / chroma_qp_offset=-2 / threads=24 / lookahead_threads=6 / sliced_threads=0 / nr=0 / decimate=1 / interlaced=0 / bluray_compat=0 / constrained_intra=0 / bframes=16 / b_pyramid=2 / b_adapt=2 / b_bias=0 / direct=3 / weightb=1 / open_gop=0 / weightp=2 / keyint=240 / keyint_min=24 / scenecut=40 / intra_refresh=0 / rc_lookahead=60 / rc=crf / mbtree=1 / crf=19.0 / qcomp=0.60 / qpmin=0 / qpmax=69 / qpstep=4 / vbv_maxrate=62500 / vbv_bufsize=78125 / crf_max=0.0 / nal_hrd=none / filler=0 / ip_ratio=1.40 / aq=1:1.00
    Default                     : Yes
    Forced                      : Yes
    Color range                 : Limited
    Color primaries             : BT.709
    Transfer characteristics    : BT.709
    Matrix coefficients         : BT.709

    Audio #1
    ID                          : 2
    Format                      : AC-3
    Format/Info                 : Audio Coding 3
    Commercial name             : Dolby Digital
    Codec ID                    : A_AC3
    Duration                    : 1 h 29 min
    Bit rate mode               : Constant
    Bit rate                    : 256 kb/s
    Channel(s)                  : 2 channels
    Channel layout              : L R
    Sampling rate               : 48.0 kHz
    Frame rate                  : 31.250 FPS (1536 SPF)
    Compression mode            : Lossy
    Stream size                 : 163 MiB (3%)
    Title                       : Español Latino [CinemaniaHDD]
    Language                    : Spanish
    Service kind                : Complete Main
    Default                     : Yes
    Forced                      : Yes

    Audio #2
    ID                          : 3
    ID in the original source m : 4352 (0x1100)
    Format                      : DTS XLL
    Format/Info                 : Digital Theater Systems
    Commercial name             : DTS-HD Master Audio
    Codec ID                    : A_DTS
    Duration                    : 1 h 29 min
    Bit rate mode               : Variable
    Bit rate                    : 2 047 kb/s
    Channel(s)                  : 6 channels
    Channel layout              : C L R Ls Rs LFE
    Sampling rate               : 48.0 kHz
    Frame rate                  : 93.750 FPS (512 SPF)
    Bit depth                   : 16 bits
    Compression mode            : Lossless
    Stream size                 : 1.27 GiB (25%)
    Title                       : Neerlandes [CinemaniaHDD]
    Language                    : Dutch
    Default                     : No
    Forced                      : No
    Original source medium      : Blu-ray

    Text #1
    ID                          : 4
    Format                      : UTF-8
    Codec ID                    : S_TEXT/UTF8
    Codec ID/Info               : UTF-8 Plain Text
    Duration                    : 53 min 51 s
    Bit rate                    : 0 b/s
    Count of elements           : 2
    Stream size                 : 17.0 Bytes (0%)
    Title                       : Forzados-SRT [CinemaniaHDD]
    Language                    : Spanish
    Default                     : Yes
    Forced                      : Yes

    Text #2
    ID                          : 5
    Format                      : UTF-8
    Codec ID                    : S_TEXT/UTF8
    Codec ID/Info               : UTF-8 Plain Text
    Duration                    : 1 h 24 min
    Bit rate                    : 33 b/s
    Count of elements           : 855
    Stream size                 : 20.6 KiB (0%)
    Title                       : Español-SRT [CinemaniaHDD]
    Language                    : Spanish
    Default                     : No
    Forced                      : No

    Text #3
    ID                          : 6
    ID in the original source m : 4608 (0x1200)
    Format                      : PGS
    Muxing mode                 : zlib
    Codec ID                    : S_HDMV/PGS
    Codec ID/Info               : Picture based subtitle format used on BDs/HD-DVDs
    Duration                    : 1 h 18 min
    Bit rate                    : 2 600 b/s
    Count of elements           : 188
    Stream size                 : 1.47 MiB (0%)
    Title                       : Ingles-PGS [CinemaniaHDD]
    Language                    : English
    Default                     : No
    Forced                      : No
    Original source medium      : Blu-ray

    Menu
    00:00:00.000                : Chapter 01 Morgue Madness
    00:02:57.468                : Chapter 02 Roadkill
    00:07:27.947                : Chapter 03 Klinika Krawczyk
    00:17:16.994                : Chapter 04 Are You Okay?
    00:24:30.218                : Chapter 05 Stairway to Hell
    00:32:23.024                : Chapter 06 Wake Up
    00:41:31.780                : Chapter 07 God is Punishing Us
    00:48:55.724                : Chapter 08 Mama Mia!
    00:58:47.982                : Chapter 09 The Only Way Out
    01:05:51.989                : Chapter 10 Risk of Contamination
    01:14:15.075                : Chapter 11 Making a Break
    01:22:45.543                : Chapter 12 Pookie?

  • Peso: 5.05 GiB

Sinopsis

Descargar Clínica de Zombies (2019) PLACEBO Full HD 1080p Latino. Yummy es una orgía de sangre, violencia y diversión en la que una pareja joven viaja a un hospital en mal estado de Europa del Este para someterse a una cirugía plástica. La joven quiere una reducción de senos. Su madre viene para otro lavado de cara. Vagando por una sala abandonada, el novio se topa con una mujer joven, amordazada y atada a una mesa de operaciones; ella es el resultado de un tratamiento experimental de rejuvenecimiento. Él la libera, pero no se da cuenta de que acaba de causar el brote de un virus que transformará a los médicos, pacientes y su suegra en zombis sedientos de sangre.

Español Latino AC3 2.0 – Neerlandés DTS-HD 5.1 Bluray

Ficha técnica

Video trailer de la película

Enlaces de descarga

Rip de Bluray

Descargar Clínica de Zombies (2019) PLACEBO Full HD 1080p Latino




Aportes de DPeliculasHDmega la pass es:dpeliculashdmega.org Aportes de CinemaniaHD la pass es:cinemaniahdd.com

Películas relacionadas

  • Nadie (2021) REMUX 1080p Latino

    Nadie (2021) REMUX 1080p Latino

    2021
    Nadie (2021) REMUX 1080p Latino

    5.0 1h 32m 2021

    Descargar Nadie (2021) REMUX 1080p Latino. Hutch Mansell, un padre de familia que aguanta con resignación...

    Director: Ilya Naishuller

    Género: Acción

    Actores: Yulia Guzhva

  • Locked Down (2021) HMAX WEB-DL 1080p Latino

    Locked Down (2021) HMAX WEB-DL 1080p Latino

    2021
    Locked Down (2021) HMAX WEB-DL 1080p Latino

    5.0 1h 58m 2021

    Linda y Paxton son una pareja con problemas pero que deciden pausar su separación con un objetivo: aprovecharse...

    Director: Sam Barry-Parker

    Género: Comedia

    Actores: Tallulah Greive

  • Annabelle 3: Viene A Casa (2019) Full HD 1080p Latino

    Annabelle 3: Viene A Casa (2019) Full HD 1080p Latino

    2019
    Annabelle 3: Viene A Casa (2019) Full HD 1080p Latino

    5.0 1h 46m 2019

    Descargar Annabelle 3: Viene A Casa (2019) Full HD 1080p Latino. Annabelle Vuelve a Casa es la tercera...

    Director: Gary Dauberman

    Género: FULL 1080p Plateadas

    Actores: Vera Farmiga

  • Annabelle 3: Viene A Casa (2019) REMUX 1080p Latino

    Annabelle 3: Viene A Casa (2019) REMUX 1080p Latino

    2019
    Annabelle 3: Viene A Casa (2019) REMUX 1080p Latino

    5.0 1h 46m 2019

    Descargar Annabelle 3 Vuelve a casa (2019) REMUX 1080p Latino. Annabelle Vuelve a Casa es la tercera...

    Director: Gary Dauberman

    Género: Misterio

    Actores: Vera Farmiga

  • Annabelle 2: La Creación (2017) Full HD 1080p Latino

    Annabelle 2: La Creación (2017) Full HD 1080p Latino

    2017
    Annabelle 2: La Creación (2017) Full HD 1080p Latino

    4.7 1 h 49 min 2017

    Descargar Annabelle 2: La Creación (2017) Full HD 1080p Latino. Década de los 50. Algunos años después...

    Director: Jan McWilliams

    Género: FULL 1080p Plateadas

    Actores: Ward Horton

Clínica de Zombies (2019) PLACEBO Full HD 1080p Latino pelicula full hd, Clínica de Zombies (2019) PLACEBO Full HD 1080p Latino mega latino, Clínica de Zombies (2019) PLACEBO Full HD 1080p Latino 4k latino, Clínica de Zombies (2019) PLACEBO Full HD 1080p Latino pelicula completa, Clínica de Zombies (2019) PLACEBO Full HD 1080p Latino descargar gratis, descargar Clínica de Zombies (2019) PLACEBO Full HD 1080p Latino pelicula latino, Clínica de Zombies (2019) PLACEBO Full HD 1080p Latino 1 link mega, Clínica de Zombies (2019) PLACEBO Full HD 1080p Latino 1 link google drive, Clínica de Zombies (2019) PLACEBO Full HD 1080p Latino hd 1080p latino.
Comentarios 0