×

¿Problemas para descargar con Mozilla, EDGE? Deshabilita la opción "Abrir vinculos en una pestaña nueva" tal como lo muestra ésta imagen.

Clifford, el gran perro rojo (2021) HD 1080p Latino

760 vistas

Información de Clifford, el gran perro rojo (2021) HD 1080p Latino

Datos de la película

  • Calidad: 1080p
  • Audio: Español Latino AC3 5.1 WEB-DL - Ingles AC3 5.1 BLURAY
  • Subtitulos: Español Latino SRT- FORZADOS SRT
  • Resolución: 1920x960p
  • Formato: MKV
  • Codec: H.264
  • Encoder: Melkor
  • Mediainfo: Clic para Mostrar Datos Ver
  • Clifford El Gran Perro Rojo (2021) HD1080p Latino[CMHDD].mkv
    Format                      : Matroska
    Format version              : Version 4
    File size                   : 3.56 GiB
    Duration                    : 1 h 36 min
    Overall bit rate            : 5 280 kb/s
    Movie name                  : Clifford the Big Red Dog (2021) CinemaniaHDD.Net
    Encoded date                : UTC 2022-01-25 05:41:31
    Writing application         : mkvmerge v56.1.0 ('My Friend') 64-bit
    Writing library             : libebml v1.4.2 + libmatroska v1.6.4
    Attachments                 : CINEMANIAHD.png

    Video
    ID                          : 1
    Format                      : AVC
    Format/Info                 : Advanced Video Codec
    Format profile              : High@L4.1
    Format settings             : CABAC / 4 Ref Frames
    Format settings, CABAC      : Yes
    Format settings, Reference  : 4 frames
    Codec ID                    : V_MPEG4/ISO/AVC
    Duration                    : 1 h 36 min
    Bit rate                    : 4 381 kb/s
    Width                       : 1 920 pixels
    Height                      : 960 pixels
    Display aspect ratio        : 2.000
    Frame rate mode             : Constant
    Frame rate                  : 23.976 (24000/1001) FPS
    Color space                 : YUV
    Chroma subsampling          : 4:2:0
    Bit depth                   : 8 bits
    Scan type                   : Progressive
    Bits/(Pixel*Frame)          : 0.099
    Stream size                 : 2.95 GiB (83%)
    Title                       : HD1080p [CinemaniaHDD]
    Writing library             : x264 core 163 r3059 b684ebe0
    Encoding settings           : cabac=1 / ref=4 / deblock=1:-1:-1 / analyse=0x3:0x133 / me=umh / subme=9 / psy=1 / psy_rd=1.00:0.15 / mixed_ref=1 / me_range=16 / chroma_me=1 / trellis=2 / 8x8dct=1 / cqm=0 / deadzone=21,11 / fast_pskip=1 / chroma_qp_offset=-3 / threads=24 / lookahead_threads=2 / sliced_threads=0 / nr=0 / decimate=1 / interlaced=0 / bluray_compat=0 / constrained_intra=0 / bframes=3 / b_pyramid=2 / b_adapt=2 / b_bias=0 / direct=3 / weightb=1 / open_gop=0 / weightp=2 / keyint=240 / keyint_min=24 / scenecut=40 / intra_refresh=0 / rc_lookahead=60 / rc=crf / mbtree=1 / crf=21.0 / qcomp=0.60 / qpmin=0 / qpmax=69 / qpstep=4 / vbv_maxrate=62500 / vbv_bufsize=78125 / crf_max=0.0 / nal_hrd=none / filler=0 / ip_ratio=1.40 / aq=1:1.00
    Default                     : Yes
    Forced                      : Yes
    Color range                 : Limited
    Color primaries             : BT.709
    Transfer characteristics    : BT.709
    Matrix coefficients         : BT.709

    Audio #1
    ID                          : 2
    Format                      : AC-3
    Format/Info                 : Audio Coding 3
    Commercial name             : Dolby Digital
    Codec ID                    : A_AC3
    Duration                    : 1 h 36 min
    Bit rate mode               : Constant
    Bit rate                    : 448 kb/s
    Channel(s)                  : 6 channels
    Channel layout              : L R C LFE Ls Rs
    Sampling rate               : 48.0 kHz
    Frame rate                  : 31.250 FPS (1536 SPF)
    Compression mode            : Lossy
    Delay relative to video     : -5 ms
    Stream size                 : 309 MiB (8%)
    Title                       : Español Latino [CinemaniaHDD]
    Language                    : Spanish
    Service kind                : Complete Main
    Default                     : Yes
    Forced                      : Yes

    Audio #2
    ID                          : 3
    Format                      : AC-3
    Format/Info                 : Audio Coding 3
    Commercial name             : Dolby Digital
    Codec ID                    : A_AC3
    Duration                    : 1 h 36 min
    Bit rate mode               : Constant
    Bit rate                    : 448 kb/s
    Channel(s)                  : 6 channels
    Channel layout              : L R C LFE Ls Rs
    Sampling rate               : 48.0 kHz
    Frame rate                  : 31.250 FPS (1536 SPF)
    Compression mode            : Lossy
    Delay relative to video     : -5 ms
    Stream size                 : 309 MiB (8%)
    Title                       : Ingles [CinemaniaHDD]
    Language                    : English
    Service kind                : Complete Main
    Default                     : No
    Forced                      : No

    Text #1
    ID                          : 4
    Format                      : UTF-8
    Codec ID                    : S_TEXT/UTF8
    Codec ID/Info               : UTF-8 Plain Text
    Duration                    : 1 h 14 min
    Bit rate                    : 0 b/s
    Count of elements           : 6
    Stream size                 : 295 Bytes (0%)
    Title                       : Forzados-SRT [CinemaniaHDD]
    Language                    : Spanish
    Default                     : Yes
    Forced                      : Yes

    Text #2
    ID                          : 5
    Format                      : UTF-8
    Codec ID                    : S_TEXT/UTF8
    Codec ID/Info               : UTF-8 Plain Text
    Duration                    : 1 h 30 min
    Bit rate                    : 86 b/s
    Count of elements           : 1686
    Stream size                 : 57.8 KiB (0%)
    Title                       : Español-SRT [CinemaniaHDD]
    Language                    : Spanish
    Default                     : No
    Forced                      : No

    Text #3
    ID                          : 6
    Format                      : UTF-8
    Codec ID                    : S_TEXT/UTF8
    Codec ID/Info               : UTF-8 Plain Text
    Duration                    : 1 h 29 min
    Bit rate                    : 79 b/s
    Count of elements           : 1690
    Stream size                 : 52.2 KiB (0%)
    Title                       : Ingles-SRT [CinemaniaHDD]
    Language                    : English
    Default                     : No
    Forced                      : No

    Menu
    00:00:00.000                : :Chapter 01
    00:06:33.059                : :Chapter 02
    00:13:48.578                : :Chapter 03
    00:18:39.285                : :Chapter 04
    00:25:50.632                : :Chapter 05
    00:34:04.167                : :Chapter 06
    00:39:43.798                : :Chapter 07
    00:48:37.331                : :Chapter 08
    00:56:41.273                : :Chapter 09
    01:02:47.597                : :Chapter 10
    01:08:56.507                : :Chapter 11
    01:12:35.643                : :Chapter 12
    01:20:14.810                : :Chapter 13
    01:30:53.198                : :Chapter 14

  • Peso: 3.56 GiB

Sinopsis

Descargar Clifford, el gran perro rojo (2021) HD 1080p Latino. Cuando Emily Elizabeth conoce a un rescatador mágico de animales que le regala un pequeño cachorro rojo, nunca se hubiera imaginado que al despertarse se encontraría un sabueso gigante de tres metros en su pequeño apartamento de Nueva York. Mientras su madre soltera se encuentra de viaje de negocios, Emily y su divertido pero impulsivo tío Casey se embarcan en una gran aventura.

Ficha técnica

Video trailer de la película

Enlaces de descarga

Rip de Bluray

Descargar Clifford, el gran perro rojo (2021) HD 1080p Latino




Aportes de DPeliculasHDmega la pass es:dpeliculashdmega.org Aportes de CinemaniaHD la pass es:cinemaniahdd.com
Guardado en : Animación , Comedia , Familia , HD 1080p

Películas relacionadas

Clifford, el gran perro rojo (2021) HD 1080p Latino pelicula full hd, Clifford, el gran perro rojo (2021) HD 1080p Latino mega latino, Clifford, el gran perro rojo (2021) HD 1080p Latino 4k latino, Clifford, el gran perro rojo (2021) HD 1080p Latino pelicula completa, Clifford, el gran perro rojo (2021) HD 1080p Latino descargar gratis, descargar Clifford, el gran perro rojo (2021) HD 1080p Latino pelicula latino, Clifford, el gran perro rojo (2021) HD 1080p Latino 1 link mega, Clifford, el gran perro rojo (2021) HD 1080p Latino 1 link google drive, Clifford, el gran perro rojo (2021) HD 1080p Latino hd 1080p latino.
Comentarios 0