×

¿Problemas para descargar con Mozilla, EDGE? Deshabilita la opción "Abrir vinculos en una pestaña nueva" tal como lo muestra ésta imagen.

Click (2006) REMUX 1080p Latino – CMHDD

150 vistas

Información de Click (2006) REMUX 1080p Latino – CMHDD

Datos de la película

  • Calidad: Full 1080p
  • Audio: Español Latino AC3 5.1 BLURAY - Ingles AC3 5.1 BLURAY
  • Subtitulos: Español Latino SRT
  • Resolución: 19201080p
  • Formato: MKV
  • Codec: H.264
  • Encoder: Dracarys
  • Mediainfo: Clic para Mostrar Datos Ver
  • Format                      : Matroska
    Format version              : Version 4
    File size                   : 26.2 GiB
    Duration                    : 1 h 47 min
    Overall bit rate mode       : Variable
    Overall bit rate            : 34.8 Mb/s
    Movie name                  : Click (2006) REMUX 1080p Latino - CMHDD
    Encoded date                : UTC 2023-12-08 13:36:42
    Writing application         : mkvmerge v47.0.0 ('Black Flag') 64-bit
    Writing library             : libebml v1.3.10 + libmatroska v1.5.2

    Video
    ID                          : 1
    Format                      : MPEG Video
    Format version              : Version 2
    Format profile              : Main@High
    Format settings             : CustomMatrix / BVOP
    Format settings, BVOP       : Yes
    Format settings, Matrix     : Custom
    Format settings, GOP        : M=3, N=15
    Codec ID                    : V_MPEG2
    Codec ID/Info               : MPEG 1 or 2 Video
    Duration                    : 1 h 47 min
    Bit rate mode               : Variable
    Bit rate                    : 33.5 Mb/s
    Maximum bit rate            : 35.0 Mb/s
    Width                       : 1 920 pixels
    Height                      : 1 080 pixels
    Display aspect ratio        : 16:9
    Frame rate mode             : Constant
    Frame rate                  : 23.976 (24000/1001) FPS
    Color space                 : YUV
    Chroma subsampling          : 4:2:0
    Bit depth                   : 8 bits
    Scan type                   : Progressive
    Compression mode            : Lossy
    Bits/(Pixel*Frame)          : 0.675
    Time code of first frame    : 00:00:00:00
    Time code source            : Group of pictures header
    GOP, Open/Closed            : Open
    GOP, Open/Closed of first f : Closed
    Stream size                 : 25.2 GiB (96%)
    Default                     : No
    Forced                      : No

    Audio #1
    ID                          : 2
    Format                      : AC-3
    Format/Info                 : Audio Coding 3
    Commercial name             : Dolby Digital
    Codec ID                    : A_AC3
    Duration                    : 1 h 47 min
    Bit rate mode               : Constant
    Bit rate                    : 640 kb/s
    Channel(s)                  : 6 channels
    Channel layout              : L R C LFE Ls Rs
    Sampling rate               : 48.0 kHz
    Frame rate                  : 31.250 FPS (1536 SPF)
    Compression mode            : Lossy
    Stream size                 : 492 MiB (2%)
    Language                    : Spanish
    Service kind                : Complete Main
    Default                     : Yes
    Forced                      : No

    Audio #2
    ID                          : 3
    Format                      : AC-3
    Format/Info                 : Audio Coding 3
    Commercial name             : Dolby Digital
    Codec ID                    : A_AC3
    Duration                    : 1 h 47 min
    Bit rate mode               : Constant
    Bit rate                    : 640 kb/s
    Channel(s)                  : 6 channels
    Channel layout              : L R C LFE Ls Rs
    Sampling rate               : 48.0 kHz
    Frame rate                  : 31.250 FPS (1536 SPF)
    Compression mode            : Lossy
    Stream size                 : 492 MiB (2%)
    Language                    : English
    Service kind                : Complete Main
    Default                     : No
    Forced                      : No

    Text
    ID                          : 4
    Format                      : UTF-8
    Codec ID                    : S_TEXT/UTF8
    Codec ID/Info               : UTF-8 Plain Text
    Duration                    : 1 h 39 min
    Bit rate                    : 78 b/s
    Frame rate                  : 0.260 FPS
    Count of elements           : 1543
    Stream size                 : 57.1 KiB (0%)
    Language                    : Spanish
    Default                     : No
    Forced                      : No

     

  • Peso: 26.2 GiB

Sinopsis

Michael Newman (Adam Sandler), un arquitecto muy ocupado que trata de progresar y tener tiempo para su mujer Donna (Kate Beckinsale) y sus dos hijos, compra un mando a distancia que parece que no sólo le permite controlar su televisión y su estéreo, sino, virtualmente, toda su vida. Rápidamente, Michael se vuelve adicto a este torrente de poder…

Ficha técnica

Video trailer de la película

Enlaces de descarga

Rip de Bluray

Descargar Click (2006) REMUX 1080p Latino – CMHDD




Aportes de DPeliculasHDmega la pass es:dpeliculashdmega.org Aportes de CinemaniaHD la pass es:cinemaniahdd.com Aportes recientes:cinemaniahdd.net
Guardado en : Comedia , Drama , Fantasía

Películas relacionadas

descargar Click (2006) REMUX 1080p Latino – CMHDD Full 1080p 1080p gratis, Click (2006) REMUX 1080p Latino – CMHDD Full 1080p mega 1 link, Click (2006) REMUX 1080p Latino – CMHDD Full 1080p pelicula completa, descargar Click (2006) REMUX 1080p Latino – CMHDD Full 1080p gratis en mega.

Click (2006) REMUX 1080p Latino – CMHDD pelicula full hd, Click (2006) REMUX 1080p Latino – CMHDD mega latino, Click (2006) REMUX 1080p Latino – CMHDD 4k latino, Click (2006) REMUX 1080p Latino – CMHDD pelicula completa, Click (2006) REMUX 1080p Latino – CMHDD descargar gratis, descargar Click (2006) REMUX 1080p Latino – CMHDD pelicula latino, Click (2006) REMUX 1080p Latino – CMHDD 1 link mega, Click (2006) REMUX 1080p Latino – CMHDD 1 link google drive, Click (2006) REMUX 1080p Latino – CMHDD hd 1080p latino.
Comentarios 0