×

¿Problemas para descargar con Mozilla, EDGE? Deshabilita la opción "Abrir vinculos en una pestaña nueva" tal como lo muestra ésta imagen.

Click: Perdiendo el control (2006) 1080p Latino

242 vistas

Información de Click: Perdiendo el control (2006) 1080p Latino

Datos de la película

  • Calidad: 1080p
  • Audio: Español Latino AC3 5.1 BLURAY - Ingles AC3 5.1 BLURAY
  • Subtitulos: Español Latino SRT - Ingles SRT
  • Resolución: 1920x1040p
  • Formato: MKV
  • Codec: H.264
  • Encoder: CinefiloCool
  • Mediainfo: Clic para Mostrar Datos Ver
  • Click Perdiendo El Control (2006) 1080p Latino-CMHDD.mkv
    Format                      : Matroska
    Format version              : Version 4
    File size                   : 4.80 GiB
    Duration                    : 1 h 47 min
    Overall bit rate mode       : Variable
    Overall bit rate            : 6 389 kb/s
    Movie name                  : Click (2006) CinemaniaHDD.Net
    Encoded date                : UTC 2022-07-20 14:38:31
    Writing application         : mkvmerge v56.1.0 ('My Friend') 64-bit
    Writing library             : libebml v1.4.2 + libmatroska v1.6.4
    Attachments                 : CINEMANIAHD.png

    Video
    ID                          : 1
    Format                      : AVC
    Format/Info                 : Advanced Video Codec
    Format profile              : High@L4.2
    Format settings             : CABAC / 4 Ref Frames
    Format settings, CABAC      : Yes
    Format settings, Reference  : 4 frames
    Codec ID                    : V_MPEG4/ISO/AVC
    Duration                    : 1 h 47 min
    Bit rate mode               : Variable
    Bit rate                    : 5 298 kb/s
    Width                       : 1 920 pixels
    Height                      : 1 040 pixels
    Display aspect ratio        : 1.85:1
    Frame rate mode             : Constant
    Frame rate                  : 23.976 (24000/1001) FPS
    Color space                 : YUV
    Chroma subsampling          : 4:2:0
    Bit depth                   : 8 bits
    Scan type                   : Progressive
    Bits/(Pixel*Frame)          : 0.111
    Stream size                 : 3.98 GiB (83%)
    Title                       : HD1080p [CinemaniaHDD]
    Writing library             : x264 core 163 r3059 b684ebe0
    Encoding settings           : cabac=1 / ref=4 / deblock=1:-2:-2 / analyse=0x3:0x133 / me=umh / subme=9 / psy=1 / psy_rd=1.00:0.25 / mixed_ref=1 / me_range=16 / chroma_me=1 / trellis=2 / 8x8dct=1 / cqm=0 / deadzone=6,6 / fast_pskip=1 / chroma_qp_offset=-4 / threads=24 / lookahead_threads=2 / sliced_threads=0 / nr=0 / decimate=0 / interlaced=0 / bluray_compat=0 / constrained_intra=0 / bframes=3 / b_pyramid=2 / b_adapt=2 / b_bias=0 / direct=3 / weightb=1 / open_gop=0 / weightp=2 / keyint=240 / keyint_min=24 / scenecut=40 / intra_refresh=0 / rc_lookahead=60 / rc=crf / mbtree=1 / crf=23.0 / qcomp=0.80 / qpmin=0 / qpmax=69 / qpstep=4 / vbv_maxrate=62500 / vbv_bufsize=78125 / crf_max=0.0 / nal_hrd=vbr / filler=0 / ip_ratio=1.10 / aq=1:0.50
    Default                     : Yes
    Forced                      : Yes
    Color range                 : Limited
    Color primaries             : BT.709
    Transfer characteristics    : BT.709
    Matrix coefficients         : BT.709

    Audio #1
    ID                          : 2
    Format                      : AC-3
    Format/Info                 : Audio Coding 3
    Commercial name             : Dolby Digital
    Codec ID                    : A_AC3
    Duration                    : 1 h 47 min
    Bit rate mode               : Constant
    Bit rate                    : 640 kb/s
    Channel(s)                  : 6 channels
    Channel layout              : L R C LFE Ls Rs
    Sampling rate               : 48.0 kHz
    Frame rate                  : 31.250 FPS (1536 SPF)
    Compression mode            : Lossy
    Delay relative to video     : 36 ms
    Stream size                 : 492 MiB (10%)
    Title                       : Español Latino [CinemaniaHDD]
    Language                    : Spanish
    Service kind                : Complete Main
    Default                     : Yes
    Forced                      : Yes

    Audio #2
    ID                          : 3
    Format                      : AC-3
    Format/Info                 : Audio Coding 3
    Commercial name             : Dolby Digital
    Codec ID                    : A_AC3
    Duration                    : 1 h 47 min
    Bit rate mode               : Constant
    Bit rate                    : 448 kb/s
    Channel(s)                  : 6 channels
    Channel layout              : L R C LFE Ls Rs
    Sampling rate               : 48.0 kHz
    Frame rate                  : 31.250 FPS (1536 SPF)
    Compression mode            : Lossy
    Delay relative to video     : -5 ms
    Stream size                 : 345 MiB (7%)
    Title                       : Ingles [CinemaniaHDD]
    Language                    : English
    Service kind                : Complete Main
    Default                     : No
    Forced                      : No

    Text #1
    ID                          : 4
    Format                      : UTF-8
    Codec ID                    : S_TEXT/UTF8
    Codec ID/Info               : UTF-8 Plain Text
    Duration                    : 1 h 28 min
    Bit rate                    : 0 b/s
    Count of elements           : 19
    Stream size                 : 397 Bytes (0%)
    Title                       : Forzados-SRT [CinemaniaHDD]
    Language                    : Spanish
    Default                     : Yes
    Forced                      : Yes

    Text #2
    ID                          : 5
    Format                      : UTF-8
    Codec ID                    : S_TEXT/UTF8
    Codec ID/Info               : UTF-8 Plain Text
    Duration                    : 1 h 39 min
    Bit rate                    : 81 b/s
    Count of elements           : 1551
    Stream size                 : 59.2 KiB (0%)
    Title                       : Español-SRT [CinemaniaHDD]
    Language                    : Spanish
    Default                     : No
    Forced                      : No

    Text #3
    ID                          : 6
    Format                      : UTF-8
    Codec ID                    : S_TEXT/UTF8
    Codec ID/Info               : UTF-8 Plain Text
    Duration                    : 1 h 39 min
    Bit rate                    : 75 b/s
    Count of elements           : 1521
    Stream size                 : 55.2 KiB (0%)
    Title                       : Ingles-SRT [CinemaniaHDD]
    Language                    : English
    Default                     : No
    Forced                      : No

    Menu
    00:00:00.000                : Title
    00:07:33.203                : Swim Meet
    00:11:46.289                : Exploding Stress
    00:18:26.314                : Give Me Some Time
    00:22:08.536                : Enough Juice
    00:31:15.874                : Powerful Device
    00:37:47.474                : Fast Forward
    00:42:38.806                : Mute
    00:49:20.749                : New Bikes
    00:54:21.550                : Be Careful
    00:59:31.401                : New Assistant
    01:06:17.223                : Making Partner
    01:14:12.657                : Heart Attach
    01:19:39.024                : Dads Grave
    01:29:18.853                : His Last Day
    01:35:02.614                : Its All A Dream

  • Peso: 4.80 GiB

Sinopsis

Descargar Click: Perdiendo el control (2006) 1080p Latino. Michael Newman (Adam Sandler), un arquitecto muy ocupado que trata de progresar y tener tiempo para su mujer Donna (Kate Beckinsale) y sus dos hijos, compra un mando a distancia que parece que no sólo le permite controlar su televisión y su estéreo, sino, virtualmente, toda su vida. Rápidamente, Michael se vuelve adicto a este torrente de poder…

Ficha técnica

Video trailer de la película

Enlaces de descarga

Rip de Bluray

Descargar Click: Perdiendo el control (2006) 1080p Latino




Aportes de DPeliculasHDmega la pass es:dpeliculashdmega.org Aportes de CinemaniaHD la pass es:cinemaniahdd.com
Guardado en : Comedia , Drama , Fantasía , HD 1080p

Películas relacionadas

descargar Click: Perdiendo el control (2006) 1080p Latino 1080p 1080p gratis, Click: Perdiendo el control (2006) 1080p Latino 1080p mega 1 link, Click: Perdiendo el control (2006) 1080p Latino 1080p pelicula completa, descargar Click: Perdiendo el control (2006) 1080p Latino 1080p gratis en mega.

Click: Perdiendo el control (2006) 1080p Latino pelicula full hd, Click: Perdiendo el control (2006) 1080p Latino mega latino, Click: Perdiendo el control (2006) 1080p Latino 4k latino, Click: Perdiendo el control (2006) 1080p Latino pelicula completa, Click: Perdiendo el control (2006) 1080p Latino descargar gratis, descargar Click: Perdiendo el control (2006) 1080p Latino pelicula latino, Click: Perdiendo el control (2006) 1080p Latino 1 link mega, Click: Perdiendo el control (2006) 1080p Latino 1 link google drive, Click: Perdiendo el control (2006) 1080p Latino hd 1080p latino.
Comentarios 0