×

¿Problemas para descargar con Mozilla, EDGE? Deshabilita la opción "Abrir vinculos en una pestaña nueva" tal como lo muestra ésta imagen.

Clarkson’s Farm (2021) Primera Temporada AMZN WEB-DL 1080p Latino

162 vistas

Información de Clarkson’s Farm (2021) Primera Temporada AMZN WEB-DL 1080p Latino

Datos de la película

  • Calidad: 1080p
  • Audio: Español Latino E-AC3 5.1 AMAZON - Ingles E-AC3 5.1 AMAZON
  • Subtitulos: Español Latino SRT- FORZADOS SRT
  • Resolución: 1920x1080
  • Formato: MKV
  • Codec: H.264
  • Encoder: cinemaniahdd
  • Mediainfo: Clic para Mostrar Datos Ver
  • Clarksons Farm T01E01 AMZN WEB-DL 1080p Latino [CNMNHDD].mkv
    Format                      : Matroska
    Format version              : Version 4
    File size                   : 4.17 GiB
    Duration                    : 53 min 30 s
    Overall bit rate            : 11.2 Mb/s
    Movie name                  : Clarksons Farm T01E01 - CinemaniaHDD.Net
    Encoded date                : UTC 2021-06-14 02:01:02
    Writing application         : mkvmerge v56.1.0 ('My Friend') 64-bit
    Writing library             : libebml v1.4.2 + libmatroska v1.6.4

    Video
    ID                          : 1
    Format                      : AVC
    Format/Info                 : Advanced Video Codec
    Format profile              : High@L4
    Format settings             : CABAC / 4 Ref Frames
    Format settings, CABAC      : Yes
    Format settings, Reference  : 4 frames
    Codec ID                    : V_MPEG4/ISO/AVC
    Duration                    : 53 min 30 s
    Bit rate mode               : Constant
    Bit rate                    : 9 230 kb/s
    Nominal bit rate            : 10 000 kb/s
    Width                       : 1 920 pixels
    Height                      : 1 080 pixels
    Display aspect ratio        : 16:9
    Frame rate mode             : Constant
    Frame rate                  : 25.000 FPS
    Color space                 : YUV
    Chroma subsampling          : 4:2:0
    Bit depth                   : 8 bits
    Scan type                   : Progressive
    Bits/(Pixel*Frame)          : 0.178
    Stream size                 : 3.45 GiB (83%)
    Title                       : CinemaniaHDD
    Language                    : English
    Default                     : Yes
    Forced                      : No
    Color range                 : Limited
    Color primaries             : BT.709
    Transfer characteristics    : BT.709
    Matrix coefficients         : BT.709

    Audio #1
    ID                          : 2
    Format                      : AC-3
    Format/Info                 : Audio Coding 3
    Commercial name             : Dolby Digital
    Codec ID                    : A_AC3
    Duration                    : 53 min 30 s
    Bit rate mode               : Constant
    Bit rate                    : 640 kb/s
    Channel(s)                  : 6 channels
    Channel layout              : L R C LFE Ls Rs
    Sampling rate               : 48.0 kHz
    Frame rate                  : 31.250 FPS (1536 SPF)
    Compression mode            : Lossy
    Stream size                 : 245 MiB (6%)
    Title                       : Español latino - AC3 [CinemaniaHDD]
    Language                    : Spanish
    Service kind                : Complete Main
    Default                     : Yes
    Forced                      : No

    Audio #2
    ID                          : 3
    Format                      : E-AC-3
    Format/Info                 : Enhanced AC-3
    Commercial name             : Dolby Digital Plus
    Codec ID                    : A_EAC3
    Duration                    : 53 min 30 s
    Bit rate mode               : Constant
    Bit rate                    : 640 kb/s
    Channel(s)                  : 6 channels
    Channel layout              : L R C LFE Ls Rs
    Sampling rate               : 48.0 kHz
    Frame rate                  : 31.250 FPS (1536 SPF)
    Compression mode            : Lossy
    Stream size                 : 245 MiB (6%)
    Title                       : Español latino - E-AC3 [CinemaniaHDD]
    Language                    : Spanish
    Service kind                : Complete Main
    Default                     : No
    Forced                      : No

    Audio #3
    ID                          : 4
    Format                      : E-AC-3
    Format/Info                 : Enhanced AC-3
    Commercial name             : Dolby Digital Plus
    Codec ID                    : A_EAC3
    Duration                    : 53 min 30 s
    Bit rate mode               : Constant
    Bit rate                    : 640 kb/s
    Channel(s)                  : 6 channels
    Channel layout              : L R C LFE Ls Rs
    Sampling rate               : 48.0 kHz
    Frame rate                  : 31.250 FPS (1536 SPF)
    Compression mode            : Lossy
    Stream size                 : 245 MiB (6%)
    Title                       : Inglés - E-AC3 [CinemaniaHDD]
    Language                    : English
    Service kind                : Complete Main
    Default                     : No
    Forced                      : No

    Text #1
    ID                          : 5
    Format                      : UTF-8
    Codec ID                    : S_TEXT/UTF8
    Codec ID/Info               : UTF-8 Plain Text
    Duration                    : 49 min 36 s
    Bit rate                    : 0 b/s
    Count of elements           : 8
    Stream size                 : 148 Bytes (0%)
    Title                       : Forzados [CinemaniaHDD]
    Language                    : Spanish
    Default                     : Yes
    Forced                      : Yes

    Text #2
    ID                          : 6
    Format                      : UTF-8
    Codec ID                    : S_TEXT/UTF8
    Codec ID/Info               : UTF-8 Plain Text
    Duration                    : 53 min 15 s
    Bit rate                    : 76 b/s
    Count of elements           : 926
    Stream size                 : 30.0 KiB (0%)
    Title                       : Español latino [CinemaniaHDD]
    Language                    : Spanish
    Default                     : No
    Forced                      : No

     

  • Peso: 4.17 GiB c/u Aprox ---- 30.3 GiB in 8 Chapters.

Sinopsis

Un año intenso, arduo y muy divertido en la vida del agricultor más insólito de Gran Bretaña, Jeremy Clarkson. Únete a Jeremy y a su grupo de socios agrícolas mientras se enfrentan a un tiempo de locos, animales desobedientes, cultivos que no crecen y una pandemia inesperada. Verás a Jeremy Clarkson como nunca antes lo habías visto.

Ficha técnica

Video trailer de la película

Enlaces de descarga

Rip de Bluray

Descargar Clarkson’s Farm (2021) Primera Temporada AMZN WEB-DL 1080p Latino




Aportes de DPeliculasHDmega la pass es:dpeliculashdmega.org Aportes de CinemaniaHD la pass es:cinemaniahdd.com
Guardado en : Documental , Reality , Series

Películas relacionadas

descargar Clarkson’s Farm (2021) Primera Temporada AMZN WEB-DL 1080p Latino 1080p 1080p gratis, Clarkson’s Farm (2021) Primera Temporada AMZN WEB-DL 1080p Latino 1080p mega 1 link, Clarkson’s Farm (2021) Primera Temporada AMZN WEB-DL 1080p Latino 1080p serie completa, descargar Clarkson’s Farm (2021) Primera Temporada AMZN WEB-DL 1080p Latino 1080p gratis en mega.

Clarkson’s Farm (2021) Primera Temporada AMZN WEB-DL 1080p Latino pelicula full hd, Clarkson’s Farm (2021) Primera Temporada AMZN WEB-DL 1080p Latino mega latino, Clarkson’s Farm (2021) Primera Temporada AMZN WEB-DL 1080p Latino 4k latino, Clarkson’s Farm (2021) Primera Temporada AMZN WEB-DL 1080p Latino pelicula completa, Clarkson’s Farm (2021) Primera Temporada AMZN WEB-DL 1080p Latino descargar gratis, descargar Clarkson’s Farm (2021) Primera Temporada AMZN WEB-DL 1080p Latino pelicula latino, Clarkson’s Farm (2021) Primera Temporada AMZN WEB-DL 1080p Latino 1 link mega, Clarkson’s Farm (2021) Primera Temporada AMZN WEB-DL 1080p Latino 1 link google drive, Clarkson’s Farm (2021) Primera Temporada AMZN WEB-DL 1080p Latino hd 1080p latino.
Comentarios 0