×

¿Problemas para descargar con Mozilla, EDGE? Deshabilita la opción "Abrir vinculos en una pestaña nueva" tal como lo muestra ésta imagen.

Clarence (2015) Primera Temporada WEB-DL [NF] 1080p Latino – CMHDD

301 vistas

Información de Clarence (2015) Primera Temporada WEB-DL [NF] 1080p Latino – CMHDD

Datos de la película

  • Calidad: WEBDL
  • Audio: Español Latino E-AC3 2.0 Netflix - Ingles E-AC3 2.0 Netflix
  • Subtitulos: Español Latino SRT- FORZADOS SRT
  • Resolución: 1920x1080p
  • Formato: MKV
  • Codec: H.264
  • Encoder: Dracarys
  • Mediainfo: Clic para Mostrar Datos Ver
  • Format                      : Matroska
    Format version              : Version 4
    File size                   : 424 MiB
    Duration                    : 11 min 8 s
    Overall bit rate mode       : Variable
    Overall bit rate            : 5 324 kb/s
    Movie name                  : Clarence (2015) [S01E01] WEB-DL [NF] 1080p Latino - CMHDD
    Encoded date                : UTC 2020-07-08 14:58:29
    Writing application         : mkvmerge v46.0.0 ('No Deeper Escape') 64-bit
    Writing library             : libebml v1.3.10 + libmatroska v1.5.2

    Video
    ID                          : 1
    Format                      : AVC
    Format/Info                 : Advanced Video Codec
    Format profile              : Main@L4
    Format settings             : CABAC / 3 Ref Frames
    Format settings, CABAC      : Yes
    Format settings, Reference  : 3 frames
    Codec ID                    : V_MPEG4/ISO/AVC
    Duration                    : 11 min 8 s
    Bit rate mode               : Variable
    Bit rate                    : 5 110 kb/s
    Maximum bit rate            : 7 665 kb/s
    Width                       : 1 920 pixels
    Height                      : 1 080 pixels
    Display aspect ratio        : 16:9
    Frame rate mode             : Constant
    Frame rate                  : 25.000 FPS
    Color space                 : YUV
    Chroma subsampling          : 4:2:0
    Bit depth                   : 8 bits
    Scan type                   : Progressive
    Bits/(Pixel*Frame)          : 0.099
    Stream size                 : 404 MiB (95%)
    Title                       : [Video]
    Writing library             : x264 core 148 r2715 7e75228
    Encoding settings           : cabac=1 / ref=3 / deblock=1:0:0 / analyse=0x1:0x111 / me=umh / subme=10 / psy=1 / psy_rd=1.00:0.00 / mixed_ref=1 / me_range=24 / chroma_me=1 / trellis=2 / 8x8dct=0 / cqm=0 / deadzone=21,11 / fast_pskip=1 / chroma_qp_offset=-2 / threads=8 / lookahead_threads=1 / sliced_threads=0 / nr=0 / decimate=1 / interlaced=0 / bluray_compat=0 / stitchable=1 / constrained_intra=0 / bframes=2 / b_pyramid=0 / b_adapt=2 / b_bias=0 / direct=3 / weightb=1 / open_gop=0 / weightp=2 / keyint=250 / keyint_min=25 / scenecut=0 / intra_refresh=0 / rc_lookahead=50 / rc=2pass / mbtree=1 / bitrate=5110 / ratetol=1.0 / qcomp=0.50 / qpmin=6 / qpmax=51 / qpstep=4 / cplxblur=20.0 / qblur=0.5 / vbv_maxrate=7665 / vbv_bufsize=10220 / nal_hrd=vbr / filler=0 / ip_ratio=1.40 / aq=1:1.00
    Language                    : English
    Default                     : Yes
    Forced                      : No

    Audio #1
    ID                          : 2
    Format                      : E-AC-3
    Format/Info                 : Enhanced AC-3
    Commercial name             : Dolby Digital Plus
    Codec ID                    : A_EAC3
    Duration                    : 11 min 8 s
    Bit rate mode               : Constant
    Bit rate                    : 128 kb/s
    Channel(s)                  : 2 channels
    Channel layout              : L R
    Sampling rate               : 48.0 kHz
    Frame rate                  : 31.250 FPS (1536 SPF)
    Compression mode            : Lossy
    Stream size                 : 10.2 MiB (2%)
    Language                    : Spanish
    Service kind                : Complete Main
    Default                     : Yes
    Forced                      : No

    Audio #2
    ID                          : 3
    Format                      : E-AC-3
    Format/Info                 : Enhanced AC-3
    Commercial name             : Dolby Digital Plus
    Codec ID                    : A_EAC3
    Duration                    : 11 min 8 s
    Bit rate mode               : Constant
    Bit rate                    : 128 kb/s
    Channel(s)                  : 2 channels
    Channel layout              : L R
    Sampling rate               : 48.0 kHz
    Frame rate                  : 31.250 FPS (1536 SPF)
    Compression mode            : Lossy
    Stream size                 : 10.2 MiB (2%)
    Language                    : English
    Service kind                : Complete Main
    Default                     : No
    Forced                      : No

    Text
    ID                          : 4
    Format                      : UTF-8
    Codec ID                    : S_TEXT/UTF8
    Codec ID/Info               : UTF-8 Plain Text
    Duration                    : 10 min 52 s
    Bit rate                    : 61 b/s
    Count of elements           : 170
    Stream size                 : 4.90 KiB (0%)
    Language                    : Spanish
    Default                     : No
    Forced                      : No
     

  • Peso: 14,7 GB total

Sinopsis

Clarence es una serie animada que gira en torno a un joven llamado Clarence, conocido por ser muy optimista, y en sus dos mejores amigos Jeff y Sumo. Clarence es un chico grande, cariñoso, divertido y que le gusta disfrutar y pasar el tiempo junto a sus amigos. Jeff es un chico organizado, limpio y muy inteligente; mientras que Sumo es un chico travieso y espabilado. A ellos, en ocasiones, se une Andy, un compañero de clase que no duda en defender a Clarence de los abusones. La ficción se centra en las aventuras que vive este grupo de jóvenes amigos

Ficha técnica

Video trailer de la película

Enlaces de descarga

Rip de Bluray

Descargar Clarence (2015) Primera Temporada WEB-DL [NF] 1080p Latino – CMHDD




Aportes de DPeliculasHDmega la pass es:dpeliculashdmega.org Aportes de CinemaniaHD la pass es:cinemaniahdd.com
Guardado en : Animación , Comedia

Películas relacionadas

  • Tren Bala (2022) WEB-DL 4K UHD HDR Latino

    Tren Bala (2022) WEB-DL 4K UHD HDR Latino

    2022
    Tren Bala (2022) WEB-DL 4K UHD HDR Latino

    2h 7m 2022

    Descargar Tren Bala (2022) WEB-DL 4K UHD HDR Latino. El desafortunado asesino "Catarina" está decidido...

    Director: Paul Barry

    Género: 4K HDR

    Actores: Zooey Miyoshi

  • Tren Bala (2022) AMZN WEB-DL 1080p Latino

    Tren Bala (2022) AMZN WEB-DL 1080p Latino

    2022
    Tren Bala (2022) AMZN WEB-DL 1080p Latino

    2h 7m 2022

    Descargar Tren Bala (2022) AMZN WEB-DL 1080p Latino. Cinco asesinos a sueldo se encuentran a bordo de...

    Director: Paul Barry

    Género: Acción

    Actores: Zooey Miyoshi

  • Rick y Morty (2022) Temporada 6 WEB-DL 1080p Latino

    Rick y Morty (2022) Temporada 6 WEB-DL 1080p Latino

    2013
    Rick y Morty (2022) Temporada 6 WEB-DL 1080p Latino

    0h 22m 2013

    Comedia animada que narra las aventuras de un científico loco Rick Sánchez, que regresa después de...

    Director: Justin Roiland

    Género: Action & Adventure

    Actores: Spencer Grammer

descargar Clarence (2015) Primera Temporada WEB-DL [NF] 1080p Latino – CMHDD WEBDL 1080p gratis, Clarence (2015) Primera Temporada WEB-DL [NF] 1080p Latino – CMHDD WEBDL mega 1 link, Clarence (2015) Primera Temporada WEB-DL [NF] 1080p Latino – CMHDD WEBDL pelicula completa, descargar Clarence (2015) Primera Temporada WEB-DL [NF] 1080p Latino – CMHDD WEBDL gratis en mega.

Clarence (2015) Primera Temporada WEB-DL [NF] 1080p Latino – CMHDD pelicula full hd, Clarence (2015) Primera Temporada WEB-DL [NF] 1080p Latino – CMHDD mega latino, Clarence (2015) Primera Temporada WEB-DL [NF] 1080p Latino – CMHDD 4k latino, Clarence (2015) Primera Temporada WEB-DL [NF] 1080p Latino – CMHDD pelicula completa, Clarence (2015) Primera Temporada WEB-DL [NF] 1080p Latino – CMHDD descargar gratis, descargar Clarence (2015) Primera Temporada WEB-DL [NF] 1080p Latino – CMHDD pelicula latino, Clarence (2015) Primera Temporada WEB-DL [NF] 1080p Latino – CMHDD 1 link mega, Clarence (2015) Primera Temporada WEB-DL [NF] 1080p Latino – CMHDD 1 link google drive, Clarence (2015) Primera Temporada WEB-DL [NF] 1080p Latino – CMHDD hd 1080p latino.
Comentarios 0