Ciudad muy caliente (1984) Full 1080p Latino

751 vistas
1 estrella2 estrellas3 estrellas4 estrellas5 estrellas (Ninguna valoración todavía)
Cargando…

Información de Ciudad muy caliente (1984) Full 1080p Latino

Datos de la película

  • Calidad: Full 1080p
  • Audio: Español Latino AC3 2.0 BLURAY - Ingles DTS 5.1 BLURAY
  • Subtitulos: Español Latino PGS - Ingles PGS
  • Resolución: 1910x1080p
  • Formato: MKV
  • Codec: H.264
  • Encoder: Dracarys
  • Mediainfo: Clic para Mostrar Datos Ver
  • Format                                   : Matroska
    Format version                           : Version 4 / Version 2
    File size                                : 9.01 GiB
    Duration                                 : 1 h 37 min
    Overall bit rate                         : 13.2 Mb/s
    Movie name                               : CinemaniaHDD.net
    Encoded date                             : UTC 2018-08-29 22:18:21 / UTC 2018-08-17T07:14:33Z
    Writing application                      : mkvmerge v15.0.0 ('Duel with the Devil') 64-bit
    Writing library                          : libebml v1.3.5 + libmatroska v1.4.5 / Lavf57.7.2

    Video
    ID                                       : 1
    Format                                   : AVC
    Format/Info                              : Advanced Video Codec
    Format profile                           : High@L4.1
    Format settings                          : CABAC / 4 Ref Frames
    Format settings, CABAC                   : Yes
    Format settings, RefFrames               : 4 frames
    Codec ID                                 : V_MPEG4/ISO/AVC
    Duration                                 : 1 h 37 min
    Bit rate                                 : 11.3 Mb/s
    Width                                    : 1 920 pixels
    Height                                   : 1 080 pixels
    Display aspect ratio                     : 16:9
    Frame rate mode                          : Constant
    Frame rate                               : 23.976 (24000/1001) FPS
    Color space                              : YUV
    Chroma subsampling                       : 4:2:0
    Bit depth                                : 8 bits
    Scan type                                : Progressive
    Bits/(Pixel*Frame)                       : 0.227
    Stream size                              : 7.67 GiB (85%)
    Title                                    : Ciudad muy caliente (1984) Full 1080p Latino
    Writing library                          : x264 core 148 r2708 86b7198
    Encoding settings                        : cabac=1 / ref=4 / deblock=1:0:0 / analyse=0x3:0x133 / me=esa / subme=10 / psy=1 / psy_rd=1.00:0.00 / mixed_ref=1 / me_range=24 / chroma_me=1 / trellis=2 / 8x8dct=1 / cqm=0 / deadzone=21,11 / fast_pskip=1 / chroma_qp_offset=-2 / threads=34 / lookahead_threads=5 / sliced_threads=0 / nr=0 / decimate=1 / interlaced=0 / bluray_compat=0 / constrained_intra=0 / bframes=8 / b_pyramid=2 / b_adapt=2 / b_bias=0 / direct=3 / weightb=1 / open_gop=0 / weightp=2 / keyint=240 / keyint_min=24 / scenecut=40 / intra_refresh=0 / rc_lookahead=60 / rc=crf / mbtree=1 / crf=20.0 / qcomp=0.60 / qpmin=0 / qpmax=69 / qpstep=4 / vbv_maxrate=62500 / vbv_bufsize=78125 / crf_max=0.0 / nal_hrd=none / filler=0 / ip_ratio=1.40 / aq=1:1.00
    Language                                 : English
    Default                                  : Yes
    Forced                                   : No
    Color range                              : Limited
    Color primaries                          : BT.709
    Transfer characteristics                 : BT.709
    Matrix coefficients                      : BT.709
    Statistics Tags Issue                    : mkvmerge v15.0.0 ('Duel with the Devil') 64-bit 2018-08-29 22:18:21 / mkvmerge v15.0.0 ('Duel with the Devil') 64-bit 2018-08-29 22:18:21 / UTC 2018-08-17T07:14:33Z
    FromStats_BitRate                        : 11505833
    FromStats_Duration                       : 01:37:30.220000000
    FromStats_FrameCount                     : 140265
    FromStats_StreamSize                     : 8413957033

    Audio #1
    ID                                       : 2
    Format                                   : AC-3
    Format/Info                              : Audio Coding 3
    Mode                                     : Dolby Digital
    Format settings, Endianness              : Big
    Codec ID                                 : A_AC3
    Duration                                 : 1 h 37 min
    Bit rate mode                            : Constant
    Bit rate                                 : 192 kb/s
    Channel(s)                               : 2 channels
    Channel positions                        : Front: L R
    Sampling rate                            : 48.0 kHz
    Frame rate                               : 31.250 FPS (1536 SPF)
    Bit depth                                : 16 bits
    Compression mode                         : Lossy
    Stream size                              : 134 MiB (1%)
    Language                                 : Spanish
    Service kind                             : Complete Main
    Default                                  : Yes
    Forced                                   : No
    Statistics Tags Issue                    : mkvmerge v15.0.0 ('Duel with the Devil') 64-bit 2018-08-29 22:18:21 / mkvmerge v15.0.0 ('Duel with the Devil') 64-bit 2018-08-29 22:18:21 / UTC 2018-08-17T07:14:33Z
    FromStats_BitRate                        : 192000
    FromStats_Duration                       : 01:37:30.272000000
    FromStats_FrameCount                     : 182821
    FromStats_StreamSize                     : 140406528

    Audio #2
    ID                                       : 3
    Format                                   : DTS
    Format/Info                              : Digital Theater Systems
    Mode                                     : 16
    Format settings, Endianness              : Big
    Codec ID                                 : A_DTS
    Duration                                 : 1 h 37 min
    Bit rate mode                            : Constant
    Bit rate                                 : 1 509 kb/s
    Channel(s)                               : 6 channels
    Channel positions                        : Front: L C R, Side: L R, LFE
    Sampling rate                            : 48.0 kHz
    Frame rate                               : 93.750 FPS (512 SPF)
    Bit depth                                : 24 bits
    Compression mode                         : Lossy
    Stream size                              : 1.03 GiB (11%)
    Language                                 : English
    Default                                  : No
    Forced                                   : No
    Statistics Tags Issue                    : mkvmerge v15.0.0 ('Duel with the Devil') 64-bit 2018-08-29 22:18:21 / mkvmerge v15.0.0 ('Duel with the Devil') 64-bit 2018-08-29 22:18:21 / UTC 2018-08-17T07:14:33Z
    FromStats_BitRate                        : 1508999
    FromStats_Duration                       : 01:37:30.251000000
    FromStats_FrameCount                     : 548461
    FromStats_StreamSize                     : 1103503532

    Text #1
    ID                                       : 4
    Format                                   : PGS
    Muxing mode                              : zlib
    Codec ID                                 : S_HDMV/PGS
    Codec ID/Info                            : Picture based subtitle format used on BDs/HD-DVDs
    Language                                 : English
    Default                                  : No
    Forced                                   : No
    Statistics Tags Issue                    : mkvmerge v15.0.0 ('Duel with the Devil') 64-bit 2018-08-29 22:18:21 / mkvmerge v15.0.0 ('Duel with the Devil') 64-bit 2018-08-29 22:18:21 / UTC 2018-08-17T07:14:33Z
    FromStats_BitRate                        : 29918
    FromStats_Duration                       : 01:36:23.110000000
    FromStats_FrameCount                     : 2142
    FromStats_StreamSize                     : 21627632

    Text #2
    ID                                       : 5
    Format                                   : PGS
    Muxing mode                              : zlib
    Codec ID                                 : S_HDMV/PGS
    Codec ID/Info                            : Picture based subtitle format used on BDs/HD-DVDs
    Language                                 : Spanish
    Default                                  : No
    Forced                                   : No
    Statistics Tags Issue                    : mkvmerge v15.0.0 ('Duel with the Devil') 64-bit 2018-08-29 22:18:21 / mkvmerge v15.0.0 ('Duel with the Devil') 64-bit 2018-08-29 22:18:21 / UTC 2018-08-17T07:14:33Z
    FromStats_BitRate                        : 20585
    FromStats_Duration                       : 01:36:56.519000000
    FromStats_FrameCount                     : 1642
    FromStats_StreamSize                     : 14966700

    Menu
    00:00:00.000                             : :Chapter 1
    00:03:35.257                             : :Chapter 2
    00:08:12.367                             : :Chapter 3
    00:12:42.887                             : :Chapter 4
    00:16:45.796                             : :Chapter 5
    00:21:13.564                             : :Chapter 6
    00:24:05.152                             : :Chapter 7
    00:28:28.332                             : :Chapter 8
    00:33:48.568                             : :Chapter 9
    00:38:33.269                             : :Chapter 10
    00:42:21.956                             : :Chapter 11
    00:45:58.714                             : :Chapter 12
    00:49:45.149                             : :Chapter 13
    00:54:44.782                             : :Chapter 14
    00:56:45.694                             : :Chapter 15
    00:58:18.745                             : :Chapter 16
    01:02:39.714                             : :Chapter 17
    01:05:41.396                             : :Chapter 18
    01:10:12.250                             : :Chapter 19
    01:14:18.996                             : :Chapter 20
    01:17:40.281                             : :Chapter 21
    01:19:14.500                             : :Chapter 22
    01:24:11.171                             : :Chapter 23
    01:28:31.890                             : :Chapter 24
    01:30:26.254                             : :Chapter 25
    01:32:57.906                             : :Chapter 26

  • Peso: 9.01 GiB

Sinopsis

Época de la Ley Seca. Mike Murphy, un antiguo policía, ha montado en Kansas City una pequeña agencia de detectives que apenas le da para vivir. Tiene un socio llamado Swift y una secretaria que lleva tres meses sin cobrar. Cuando un día Swift aparece con dinero suficiente para resolver todos sus apuros, Murphy empieza a temer que se haya metido en un lío demasiado grande.

Ficha técnica

Video trailer de la película

Enlaces de descarga

Rip de Bluray

Descargar Ciudad muy caliente (1984) Full 1080p Latino




Aportes de DPeliculasHDmega la pass es:dpeliculashdmega.org Aportes de CinemaniaHD la pass es:cinemaniahdd.com

Películas relacionadas

  • Matar o morir (2018) 1080p Subtitulado

    2018
    Matar o morir (2018) 1080p Subtitulado

    5.0 1h 41m 2018

    Descargar Matar o morir [Peppermint] (2018) 1080p Subtitulado, Mega, Google Drive. LRiley North (Jennifer...

    Director: Pierre Morel

    Género: Acción

    Actores: YaYa Gosselin

  • Ni en tus sueños (2010) Full 1080p Latino

    2010
    Ni en tus sueños (2010) Full 1080p Latino

    0.0 1h 44m 2010

    Descargar Ni en tus sueños (2010) Full 1080p Latino, Mega, Google Drive. Kirk (Jay Baruchel, "Tropic...

    Director: Richard L. Fox

    Género: Comedia

    Actores: Yan Xi

  • Ni en tus sueños (2010) 1080p Latino

    2010
    Ni en tus sueños (2010) 1080p Latino

    0.0 1h 44m 2010

    Descargar Ni en tus sueños (2010) 1080p Latino, Mega, Google Drive. Kirk (Jay Baruchel, "Tropic Thunder")...

    Director: Richard L. Fox

    Género: Comedia

    Actores: Yan Xi

  • La Chica de La Capa Roja (2011) Full 1080p Latino

    2011
    La Chica de La Capa Roja (2011) Full 1080p Latino

    4.7 1h 40m 2011

    Descargar La Chica de La Capa Roja (2011) Full 1080p Latino, Mega, Google Drive. La joven Valerie se...

    Director: Kimi Webber

    Género: Fantasía

    Actores: Virginia Madsen

Comentarios 0