×

¿Problemas para descargar con Mozilla, EDGE? Deshabilita la opción "Abrir vinculos en una pestaña nueva" tal como lo muestra ésta imagen.

Ciudad de sombras (2013) REMUX 1080p Latino

693 vistas

Información de Ciudad de sombras (2013) REMUX 1080p Latino

Datos de la película

  • Calidad: Full 1080p
  • Audio: Español Latino AC3 2.0 BLURAY - Ingles DTS 5.1 BLURAY
  • Subtitulos: Español Latino SRT- FORZADOS SRT
  • Resolución: 1920x1080
  • Formato: MKV
  • Codec: H.264
  • Encoder: cinemaniahdd
  • Mediainfo: Clic para Mostrar Datos Ver
  • Broken City (2013) REMUX 1080p Latino.mkv
    Format                      : Matroska
    Format version              : Version 4
    File size                   : 29.1 GiB
    Duration                    : 1 h 48 min
    Overall bit rate mode       : Variable
    Overall bit rate            : 38.3 Mb/s
    Movie name                  : Broken City (2013) - CinemaniaHDD.Net
    Encoded date                : UTC 2020-04-17 20:21:45
    Writing application         : mkvmerge v42.0.0 ('Overtime') 64-bit
    Writing library             : libebml v1.3.10 + libmatroska v1.5.2

    Video
    ID                          : 1
    Format                      : AVC
    Format/Info                 : Advanced Video Codec
    Format profile              : High@L4.1
    Format settings             : CABAC / 2 Ref Frames
    Format settings, CABAC      : Yes
    Format settings, ReFrames   : 2 frames
    Codec ID                    : V_MPEG4/ISO/AVC
    Duration                    : 1 h 48 min
    Bit rate mode               : Variable
    Bit rate                    : 33.2 Mb/s
    Width                       : 1 920 pixels
    Height                      : 1 080 pixels
    Display aspect ratio        : 16:9
    Frame rate mode             : Constant
    Frame rate                  : 23.976 (24000/1001) FPS
    Color space                 : YUV
    Chroma subsampling          : 4:2:0
    Bit depth                   : 8 bits
    Scan type                   : Progressive
    Bits/(Pixel*Frame)          : 0.668
    Stream size                 : 25.2 GiB (87%)
    Title                       : CinemaniaHDD
    Language                    : English
    Default                     : No
    Forced                      : No

    Audio #1
    ID                          : 2
    Format                      : AC-3
    Format/Info                 : Audio Coding 3
    Commercial name             : Dolby Digital
    Codec ID                    : A_AC3
    Duration                    : 1 h 48 min
    Bit rate mode               : Constant
    Bit rate                    : 256 kb/s
    Channel(s)                  : 2 channels
    Channel layout              : L R
    Sampling rate               : 48.0 kHz
    Frame rate                  : 31.250 FPS (1536 SPF)
    Bit depth                   : 16 bits
    Compression mode            : Lossy
    Stream size                 : 199 MiB (1%)
    Title                       : Español latino [CinemaniaHDD]
    Language                    : Spanish
    Service kind                : Complete Main
    Default                     : Yes
    Forced                      : No

    Audio #2
    ID                          : 3
    Format                      : DTS
    Format/Info                 : Digital Theater Systems
    Codec ID                    : A_DTS
    Duration                    : 1 h 48 min
    Bit rate mode               : Constant
    Bit rate                    : 1 509 kb/s
    Channel(s)                  : 6 channels
    Channel layout              : C L R Ls Rs LFE
    Sampling rate               : 48.0 kHz
    Frame rate                  : 93.750 FPS (512 SPF)
    Bit depth                   : 24 bits
    Compression mode            : Lossy
    Stream size                 : 1.15 GiB (4%)
    Title                       : Inglés - Core [CinemaniaHDD]
    Language                    : English
    Default                     : No
    Forced                      : No

    Audio #3
    ID                          : 4
    Format                      : DTS XLL
    Format/Info                 : Digital Theater Systems
    Commercial name             : DTS-HD Master Audio
    Codec ID                    : A_DTS
    Duration                    : 1 h 48 min
    Bit rate mode               : Variable
    Bit rate                    : 3 301 kb/s
    Channel(s)                  : 6 channels
    Channel layout              : C L R Ls Rs LFE
    Sampling rate               : 48.0 kHz
    Frame rate                  : 93.750 FPS (512 SPF)
    Bit depth                   : 24 bits
    Compression mode            : Lossless
    Stream size                 : 2.51 GiB (9%)
    Title                       : Inglés [CinemaniaHDD]
    Language                    : English
    Default                     : No
    Forced                      : No

    Text #1
    ID                          : 5
    Format                      : UTF-8
    Codec ID                    : S_TEXT/UTF8
    Codec ID/Info               : UTF-8 Plain Text
    Duration                    : 1 h 26 min
    Bit rate                    : 0 b/s
    Count of elements           : 14
    Stream size                 : 373 Bytes (0%)
    Title                       : Forzados [CinemaniaHDD]
    Language                    : Spanish
    Default                     : Yes
    Forced                      : Yes

    Text #2
    ID                          : 6
    Format                      : UTF-8
    Codec ID                    : S_TEXT/UTF8
    Codec ID/Info               : UTF-8 Plain Text
    Duration                    : 1 h 40 min
    Bit rate                    : 72 b/s
    Count of elements           : 1457
    Stream size                 : 52.9 KiB (0%)
    Title                       : Español latino [CinemaniaHDD]
    Language                    : Spanish
    Default                     : No
    Forced                      : No

    Text #3
    ID                          : 7
    Format                      : PGS
    Muxing mode                 : zlib
    Codec ID                    : S_HDMV/PGS
    Codec ID/Info               : Picture based subtitle format used on BDs/HD-DVDs
    Duration                    : 1 h 41 min
    Bit rate                    : 46.4 kb/s
    Count of elements           : 3049
    Stream size                 : 33.6 MiB (0%)
    Title                       : Inglés [CinemaniaHDD]
    Language                    : English
    Default                     : No
    Forced                      : No

    Text #4
    ID                          : 8
    Format                      : PGS
    Muxing mode                 : zlib
    Codec ID                    : S_HDMV/PGS
    Codec ID/Info               : Picture based subtitle format used on BDs/HD-DVDs
    Duration                    : 1 h 46 min
    Bit rate                    : 38.8 kb/s
    Count of elements           : 2697
    Stream size                 : 29.5 MiB (0%)
    Title                       : Español latino [CinemaniaHDD]
    Language                    : Spanish
    Default                     : No
    Forced                      : No

    Menu #1
    00:00:00.000                : :00:00:00.000
    00:02:23.852                : :00:02:23.852
    00:07:27.656                : :00:07:27.656
    00:10:58.116                : :00:10:58.116
    00:14:28.159                : :00:14:28.159
    00:20:49.039                : :00:20:49.039
    00:24:21.835                : :00:24:21.835
    00:25:50.591                : :00:25:50.591
    00:29:54.209                : :00:29:54.209
    00:31:55.122                : :00:31:55.122
    00:35:32.839                : :00:35:32.839
    00:37:39.048                : :00:37:39.048
    00:40:37.435                : :00:40:37.435
    00:46:11.602                : :00:46:11.602
    00:50:47.836                : :00:50:47.836
    00:55:03.634                : :00:55:03.634
    01:00:58.488                : :01:00:58.488
    01:04:27.822                : :01:04:27.822
    01:08:01.536                : :01:08:01.536
    01:10:17.130                : :01:10:17.130
    01:15:12.258                : :01:15:12.258
    01:18:01.135                : :01:18:01.135
    01:23:21.079                : :01:23:21.079
    01:27:34.416                : :01:27:34.416
    01:35:52.121                : :01:35:52.121
    01:38:00.666                : :01:38:00.666
    01:40:29.023                : :01:40:29.023
    01:42:36.442                : :01:42:36.442

  • Peso: 29.1 GiB

Sinopsis

Siete años después de haberse visto obligado a dejar su puesto en la policía de Nueva York por un escándalo producido por un desafortunado tiroteo, el detective privado Billy Taggart (Mark Wahlberg) es contratado por el alcalde de la ciudad, Nicholas Hostetler (Russell Crowe), para que investigue la presunta infidelidad de su mujer (Catherine Zeta-Jones). Pero cuando el supuesto amante de ésta aparece muerto, las cosas se complican mucho más de lo que Taggart podría haber previsto. El detective, que no tarda en descubrir que no era más que un peón en una partida mayor, se adentra en la zona gris que une los mundos del crimen, la política y los negocios.

Ficha técnica

Video trailer de la película

Enlaces de descarga

Rip de Bluray

Descargar Ciudad de sombras (2013) REMUX 1080p Latino




Aportes de DPeliculasHDmega la pass es:dpeliculashdmega.org Aportes de CinemaniaHD la pass es:cinemaniahdd.com
Guardado en : Crimen , Drama , Remux , Suspenso

Películas relacionadas

descargar Ciudad de sombras (2013) REMUX 1080p Latino Full 1080p 1080p gratis, Ciudad de sombras (2013) REMUX 1080p Latino Full 1080p mega 1 link, Ciudad de sombras (2013) REMUX 1080p Latino Full 1080p pelicula completa, descargar Ciudad de sombras (2013) REMUX 1080p Latino Full 1080p gratis en mega.

Ciudad de sombras (2013) REMUX 1080p Latino pelicula full hd, Ciudad de sombras (2013) REMUX 1080p Latino mega latino, Ciudad de sombras (2013) REMUX 1080p Latino 4k latino, Ciudad de sombras (2013) REMUX 1080p Latino pelicula completa, Ciudad de sombras (2013) REMUX 1080p Latino descargar gratis, descargar Ciudad de sombras (2013) REMUX 1080p Latino pelicula latino, Ciudad de sombras (2013) REMUX 1080p Latino 1 link mega, Ciudad de sombras (2013) REMUX 1080p Latino 1 link google drive, Ciudad de sombras (2013) REMUX 1080p Latino hd 1080p latino.
Comentarios 0