×

¿Problemas para descargar con Mozilla, EDGE? Deshabilita la opción "Abrir vinculos en una pestaña nueva" tal como lo muestra ésta imagen.

City on a Hill (2022) Temporada 3 AMZN WEB-DL 1080p Latino

172 vistas

Información de City on a Hill (2022) Temporada 3 AMZN WEB-DL 1080p Latino

Datos de la película

  • Calidad: 1080p
  • Audio: Español Latino AC3 2.0 WEB-DL - Ingles AC3 5.1 WEB-DL
  • Subtitulos: Ingles SRT
  • Resolución: 1920x1080
  • Formato: MKV
  • Codec: H.264
  • Encoder: cinemaniahdd
  • Mediainfo: Clic para Mostrar Datos Ver
  • City on a Hill T03E01 AMZN WEB-DL 1080p Latino [CNMNHDD].mkv
    Format                      : Matroska
    Format version              : Version 4
    File size                   : 4.17 GiB
    Duration                    : 57 min 15 s
    Overall bit rate            : 10.4 Mb/s
    Movie name                  : City on a Hill S03E01 - Gods and Monsters [1080p] - CinemaniaHDD.Net
    Encoded date                : UTC 2022-08-01 23:36:58
    Writing application         : mkvmerge v56.1.0 ('My Friend') 64-bit
    Writing library             : libebml v1.4.2 + libmatroska v1.6.4

    Video
    ID                          : 1
    Format                      : AVC
    Format/Info                 : Advanced Video Codec
    Format profile              : High@L4
    Format settings             : CABAC / 4 Ref Frames
    Format settings, CABAC      : Yes
    Format settings, Reference  : 4 frames
    Codec ID                    : V_MPEG4/ISO/AVC
    Duration                    : 57 min 15 s
    Bit rate mode               : Constant
    Bit rate                    : 9 401 kb/s
    Nominal bit rate            : 10 000 kb/s
    Width                       : 1 920 pixels
    Height                      : 1 080 pixels
    Display aspect ratio        : 16:9
    Frame rate mode             : Constant
    Frame rate                  : 23.976 (24000/1001) FPS
    Color space                 : YUV
    Chroma subsampling          : 4:2:0
    Bit depth                   : 8 bits
    Scan type                   : Progressive
    Bits/(Pixel*Frame)          : 0.189
    Stream size                 : 3.76 GiB (90%)
    Title                       : CinemaniaHDD
    Default                     : Yes
    Forced                      : No
    Color range                 : Limited
    Color primaries             : BT.709
    Transfer characteristics    : BT.709
    Matrix coefficients         : BT.709

    Audio #1
    ID                          : 2
    Format                      : AC-3
    Format/Info                 : Audio Coding 3
    Commercial name             : Dolby Digital
    Codec ID                    : A_AC3
    Duration                    : 57 min 15 s
    Bit rate mode               : Constant
    Bit rate                    : 384 kb/s
    Channel(s)                  : 2 channels
    Channel layout              : L R
    Sampling rate               : 48.0 kHz
    Frame rate                  : 31.250 FPS (1536 SPF)
    Compression mode            : Lossy
    Stream size                 : 157 MiB (4%)
    Title                       : Español latino [CinemaniaHDD]
    Language                    : Spanish
    Service kind                : Complete Main
    Default                     : Yes
    Forced                      : No

    Audio #2
    ID                          : 3
    Format                      : E-AC-3
    Format/Info                 : Enhanced AC-3
    Commercial name             : Dolby Digital Plus
    Codec ID                    : A_EAC3
    Duration                    : 57 min 15 s
    Bit rate mode               : Constant
    Bit rate                    : 640 kb/s
    Channel(s)                  : 6 channels
    Channel layout              : L R C LFE Ls Rs
    Sampling rate               : 48.0 kHz
    Frame rate                  : 31.250 FPS (1536 SPF)
    Compression mode            : Lossy
    Delay relative to video     : 18 ms
    Stream size                 : 262 MiB (6%)
    Title                       : Inglés [CinemaniaHDD]
    Language                    : English
    Service kind                : Complete Main
    Default                     : No
    Forced                      : No

    Text
    ID                          : 4
    Format                      : UTF-8
    Codec ID                    : S_TEXT/UTF8
    Codec ID/Info               : UTF-8 Plain Text
    Duration                    : 55 min 21 s
    Bit rate                    : 223 b/s
    Count of elements           : 1111
    Stream size                 : 90.8 KiB (0%)
    Title                       : Inglés [CinemaniaHDD]
    Language                    : English
    Default                     : No
    Forced                      : No

     

  • Peso: 4.17 GiB C/U --- PRIMER CAPITULO AGREGADO

Sinopsis

A principios de los años 90, Boston era una ciudad repleta de crímenes que contaban con el beneplácito del cuerpo de policía y en la que la corrupción y el racismo estaban a la orden del día. La situación social de la urbe cambiaría tras la llegada de un nuevo fiscal del distrito afroamericano que, unido a un corrupto pero venerado agente del FBI, comienza a investigar el funcionamiento del sistema criminal y judicial. La serie se inspira el el denominado «Milagro de Boston», que daría un vuelco radical a los métodos policiales de la ciudad norteamericana

PRIMER CAPITULO AGREGADO

Ficha técnica

  • Titulo original: City on a Hill
  • Fecha de lanzamiento: 16-06-2019 (US)
  • Género: Crimen, Drama, Series

Video trailer de la película

Enlaces de descarga

Rip de Bluray

Descargar City on a Hill (2022) Temporada 3 AMZN WEB-DL 1080p Latino




Aportes de DPeliculasHDmega la pass es:dpeliculashdmega.org Aportes de CinemaniaHD la pass es:cinemaniahdd.com
Guardado en : Crimen , Drama , Series

Películas relacionadas

City on a Hill (2022) Temporada 3 AMZN WEB-DL 1080p Latino pelicula full hd, City on a Hill (2022) Temporada 3 AMZN WEB-DL 1080p Latino mega latino, City on a Hill (2022) Temporada 3 AMZN WEB-DL 1080p Latino 4k latino, City on a Hill (2022) Temporada 3 AMZN WEB-DL 1080p Latino pelicula completa, City on a Hill (2022) Temporada 3 AMZN WEB-DL 1080p Latino descargar gratis, descargar City on a Hill (2022) Temporada 3 AMZN WEB-DL 1080p Latino pelicula latino, City on a Hill (2022) Temporada 3 AMZN WEB-DL 1080p Latino 1 link mega, City on a Hill (2022) Temporada 3 AMZN WEB-DL 1080p Latino 1 link google drive, City on a Hill (2022) Temporada 3 AMZN WEB-DL 1080p Latino hd 1080p latino.
Comentarios 0