×

¿Problemas para descargar con Mozilla, EDGE? Deshabilita la opción "Abrir vinculos en una pestaña nueva" tal como lo muestra ésta imagen.

Ember: La ciudad perdida (2008) REMUX 1080p Latino

483 vistas

Información de Ember: La ciudad perdida (2008) REMUX 1080p Latino

Datos de la película

  • Calidad: Full 1080p
  • Audio: Se especifica abajo de la Sinopsis
  • Subtitulos: Español Latino SRT- FORZADOS SRT
  • Resolución: 1920x1080p
  • Formato: MKV
  • Codec: H.264
  • Encoder: CinefiloCool
  • Mediainfo: Clic para Mostrar Datos Ver
  • Ember La Ciudad Perdida (2008) REMUX 1080p Latino-CMHDD.mkv
    Format                      : Matroska
    Format version              : Version 4
    File size                   : 14.9 GiB
    Duration                    : 1 h 34 min
    Overall bit rate mode       : Variable
    Overall bit rate            : 22.6 Mb/s
    Movie name                  : City Of Ember (2008) CinemaniaHDD.Net
    Encoded date                : UTC 2023-04-30 01:03:31
    Writing application         : mkvmerge v56.1.0 ('My Friend') 64-bit
    Writing library             : libebml v1.4.2 + libmatroska v1.6.4
    Attachments                 : CINEMANIAHD.png

    Video
    ID                          : 1
    Format                      : VC-1
    Format profile              : Advanced@L3
    Codec ID                    : V_MS/VFW/FOURCC / WVC1
    Codec ID/Hint               : Microsoft
    Duration                    : 1 h 34 min
    Bit rate                    : 20.0 Mb/s
    Width                       : 1 920 pixels
    Height                      : 1 080 pixels
    Display aspect ratio        : 16:9
    Frame rate mode             : Constant
    Frame rate                  : 24.000 FPS
    Color space                 : YUV
    Chroma subsampling          : 4:2:0
    Bit depth                   : 8 bits
    Scan type                   : Progressive
    Compression mode            : Lossy
    Bits/(Pixel*Frame)          : 0.401
    Stream size                 : 13.2 GiB (89%)
    Title                       : REMUX HD1080p [CinemaniaHDD]
    Default                     : Yes
    Forced                      : Yes

    Audio #1
    ID                          : 2
    Format                      : AC-3
    Format/Info                 : Audio Coding 3
    Commercial name             : Dolby Digital
    Codec ID                    : A_AC3
    Duration                    : 1 h 34 min
    Bit rate mode               : Constant
    Bit rate                    : 256 kb/s
    Channel(s)                  : 2 channels
    Channel layout              : L R
    Sampling rate               : 48.0 kHz
    Frame rate                  : 31.250 FPS (1536 SPF)
    Compression mode            : Lossy
    Delay relative to video     : -42 ms
    Stream size                 : 173 MiB (1%)
    Title                       : Español Latino [CinemaniaHDD]
    Language                    : Spanish
    Service kind                : Complete Main
    Default                     : Yes
    Forced                      : Yes

    Audio #2
    ID                          : 3
    Format                      : MLP FBA
    Format/Info                 : Meridian Lossless Packing FBA
    Commercial name             : Dolby TrueHD
    Codec ID                    : A_TRUEHD
    Duration                    : 1 h 34 min
    Bit rate mode               : Variable
    Bit rate                    : 1 609 kb/s
    Maximum bit rate            : 2 661 kb/s
    Channel(s)                  : 6 channels
    Channel layout              : L R C LFE Ls Rs
    Sampling rate               : 48.0 kHz
    Frame rate                  : 1 200.000 FPS (40 SPF)
    Compression mode            : Lossless
    Delay relative to video     : -42 ms
    Stream size                 : 1.06 GiB (7%)
    Title                       : Ingles [CinemaniaHDD]
    Language                    : English
    Default                     : No
    Forced                      : No

    Audio #3
    ID                          : 4
    Format                      : AC-3
    Format/Info                 : Audio Coding 3
    Commercial name             : Dolby Digital
    Codec ID                    : A_AC3
    Duration                    : 1 h 34 min
    Bit rate mode               : Constant
    Bit rate                    : 640 kb/s
    Channel(s)                  : 6 channels
    Channel layout              : L R C LFE Ls Rs
    Sampling rate               : 48.0 kHz
    Frame rate                  : 31.250 FPS (1536 SPF)
    Compression mode            : Lossy
    Delay relative to video     : -42 ms
    Stream size                 : 434 MiB (3%)
    Title                       : Ingles-AC3 [CinemaniaHDD]
    Language                    : English
    Service kind                : Complete Main
    Default                     : No
    Forced                      : No

    Text #1
    ID                          : 5
    Format                      : UTF-8
    Codec ID                    : S_TEXT/UTF8
    Codec ID/Info               : UTF-8 Plain Text
    Duration                    : 1 h 22 min
    Bit rate                    : 0 b/s
    Count of elements           : 28
    Stream size                 : 565 Bytes (0%)
    Title                       : Forzados-SRT [CinemaniaHDD]
    Language                    : Spanish
    Default                     : Yes
    Forced                      : Yes

    Text #2
    ID                          : 6
    Format                      : UTF-8
    Codec ID                    : S_TEXT/UTF8
    Codec ID/Info               : UTF-8 Plain Text
    Duration                    : 1 h 29 min
    Bit rate                    : 41 b/s
    Count of elements           : 876
    Stream size                 : 27.2 KiB (0%)
    Title                       : Español-SRT [CinemaniaHDD]
    Language                    : Spanish
    Default                     : No
    Forced                      : No

    Text #3
    ID                          : 7
    Format                      : PGS
    Muxing mode                 : zlib
    Codec ID                    : S_HDMV/PGS
    Codec ID/Info               : Picture based subtitle format used on BDs/HD-DVDs
    Duration                    : 1 h 28 min
    Bit rate                    : 28.8 kb/s
    Count of elements           : 1932
    Stream size                 : 18.3 MiB (0%)
    Title                       : Ingles [CinemaniaHDD]
    Language                    : English
    Default                     : No
    Forced                      : No

    Menu
    00:00:00.000                : Mian Titles / The Box
    00:02:45.790                : Another Blackout
    00:04:30.937                : Assignment Day
    00:08:57.119                : Job Swap
    00:14:12.935                : New Positions
    00:18:36.782                : So Dark
    00:19:56.111                : The Pipeworks
    00:27:20.513                : Seven Minutes
    00:30:21.861                : Message For the Mayor
    00:31:58.541                : Fleet Delivery
    00:34:36.407                : Puzzle Pieces
    00:38:22.758                : Help Will Come
    00:41:34.241                : Underground Monster
    00:45:34.481                : Lina's Father
    00:47:54.037                : Troubled Times
    00:50:28.775                : Room 351
    00:56:05.904                : Serious Accusation
    00:58:37.055                : On the Run
    01:01:16.339                : In Hiding
    01:03:10.578                : A Way Out
    01:04:55.391                : Beacon of Light
    01:06:18.891                : The Key
    01:08:32.274                : Master Plan
    01:14:18.120                : Emergency Controls
    01:17:04.953                : "It's My Job"
    01:22:22.729                : Exit From Ember
    01:27:13.144                : First Dawn
    01:29:00.626                : Message
    01:29:38.726                : End Titles

  • Peso: 14.9 GiB

Sinopsis

Descargar Ember: La ciudad perdida (2008) REMUX 1080p Latino. Bienvenidos a la ciudad de Ember, donde siempre es de noche. La ciudad ha sido construida bajo tierra y las únicas luces que la iluminan, doce horas al día, provienen de las farolas. Más allá de la ciudad se encuentran las Regiones Desconocidas, que nadie ha explorado todavía. Los habitantes de Ember han vivido confortablemente durante doscientos cincuenta años, mientras sus comercios han estado bien abastecidos. Pero llega un día en que las luces de las farolas y de los focos empiezan a parpadear. Todos se preguntan qué pasará cuando el generador central, que funciona gracias a un río subterráneo, se estropee del todo. Lina, una niña de trece años, tratará de descubrir junto a su amigo Doon cuál es la clave para solucionar la grave situación en que se encuentra Ember. Algo que les llevará a correr grandes aventuras y descubrir los misterios que se esconden más allá de la ciudad.

Audio Español Latino AC3 2.0 DVD – Ingles TrueHD 5.1 + AC3 5.1 Bluray

Ficha técnica

Video trailer de la película

Enlaces de descarga

Rip de Bluray

Descargar Ember: La ciudad perdida (2008) REMUX 1080p Latino


Aportes de DPeliculasHDmega la pass es:dpeliculashdmega.org Aportes de CinemaniaHD la pass es:cinemaniahdd.com Aportes recientes:cinemaniahdd.net
Guardado en : Aventura , Familia , Fantasía , Remux

Películas relacionadas

  • Red de venganza (2023) REMUX 1080p Latino

    Red de venganza (2023) REMUX 1080p Latino

    2023
    Red de venganza (2023) REMUX 1080p Latino

    1h 25m 2023

    Descargar Red de venganza (2023) REMUX 1080p Latino. Analiza los problemas que surgen entre una madre...

    Director: Amy Redford

    Género: Drama

    Actores: Summer Phoenix

  • The Shift (2023) AMZN WEB-DL 1080p Latino

    The Shift (2023) AMZN WEB-DL 1080p Latino

    2023
    The Shift (2023) AMZN WEB-DL 1080p Latino

    1h 53m 2023

    Descargar The Shift (2023) AMZN WEB-DL 1080p Latino. Kevin viaja a través de los mundos para reunirse...

    Director: Brock Heasley

    Género: Ciencia ficción

    Actores: Teck

  • Kung Fu Panda 4 (2024) 1080p Latino-CMHDD

    Kung Fu Panda 4 (2024) 1080p Latino-CMHDD

    2024
    Kung Fu Panda 4 (2024) 1080p Latino-CMHDD

    1h 34m 2024

    Descargar Kung Fu Panda 4 (2024) 1080p Latino-CMHDD. Po se prepara para ser el líder espiritual del...

    Director: Stephanie Ma Stine

    Género: Acción

    Actores: Viola Davis

  • Kung Fu Panda 4 (2024) Full HD 1080p Latino-CMHDD

    Kung Fu Panda 4 (2024) Full HD 1080p Latino-CMHDD

    2024
    Kung Fu Panda 4 (2024) Full HD 1080p Latino-CMHDD

    1h 34m 2024

    Descargar Kung Fu Panda 4 (2024) Full HD 1080p Latino-CMHDD. Po se prepara para ser el líder espiritual...

    Director: Stephanie Ma Stine

    Género: Acción

    Actores: Viola Davis

  • Kung Fu Panda 4 (2024) REMUX 1080p Latino-CMHDD

    Kung Fu Panda 4 (2024) REMUX 1080p Latino-CMHDD

    2024
    Kung Fu Panda 4 (2024) REMUX 1080p Latino-CMHDD

    1h 34m 2024

    Descargar Kung Fu Panda 4 (2024) REMUX 1080p Latino-CMHDD. Po se prepara para ser el líder espiritual...

    Director: Stephanie Ma Stine

    Género: Acción

    Actores: Viola Davis

descargar Ember: La ciudad perdida (2008) REMUX 1080p Latino Full 1080p 1080p gratis, Ember: La ciudad perdida (2008) REMUX 1080p Latino Full 1080p mega 1 link, Ember: La ciudad perdida (2008) REMUX 1080p Latino Full 1080p pelicula completa, descargar Ember: La ciudad perdida (2008) REMUX 1080p Latino Full 1080p gratis en mega.

Ember: La ciudad perdida (2008) REMUX 1080p Latino pelicula full hd, Ember: La ciudad perdida (2008) REMUX 1080p Latino mega latino, Ember: La ciudad perdida (2008) REMUX 1080p Latino 4k latino, Ember: La ciudad perdida (2008) REMUX 1080p Latino pelicula completa, Ember: La ciudad perdida (2008) REMUX 1080p Latino descargar gratis, descargar Ember: La ciudad perdida (2008) REMUX 1080p Latino pelicula latino, Ember: La ciudad perdida (2008) REMUX 1080p Latino 1 link mega, Ember: La ciudad perdida (2008) REMUX 1080p Latino 1 link google drive, Ember: La ciudad perdida (2008) REMUX 1080p Latino hd 1080p latino.
Comentarios 0