×

¿Problemas para descargar con Mozilla, EDGE? Deshabilita la opción "Abrir vinculos en una pestaña nueva" tal como lo muestra ésta imagen.

City Of Angels (1998) REMUX 1080P – CMHDD

289 vistas

Información de City Of Angels (1998) REMUX 1080P – CMHDD

Datos de la película

  • Calidad: Full 1080p
  • Audio: Español Latino AC3 2.0 BLURAY - Ingles DTS 5.1 BLURAY
  • Subtitulos: Español Latino SRT
  • Resolución: 1920x1080p
  • Formato: MKV
  • Codec: H.264
  • Encoder: Dracarys
  • Mediainfo: Clic para Mostrar Datos Ver
  • Format                      : Matroska
    Format version              : Version 4
    File size                   : 22.5 GiB
    Duration                    : 1 h 54 min
    Overall bit rate mode       : Variable
    Overall bit rate            : 28.2 Mb/s
    Movie name                  : City Of Angels (1998) REMUX 1080P - CMHDD
    Encoded date                : UTC 2020-05-12 03:39:41
    Writing application         : mkvmerge v46.0.0 ('No Deeper Escape') 64-bit
    Writing library             : libebml v1.3.10 + libmatroska v1.5.2

    Video
    ID                          : 1
    Format                      : AVC
    Format/Info                 : Advanced Video Codec
    Format profile              : High@L4.1
    Format settings             : CABAC / 2 Ref Frames
    Format settings, CABAC      : Yes
    Format settings, Reference  : 2 frames
    Format settings, GOP        : M=1, N=10
    Codec ID                    : V_MPEG4/ISO/AVC
    Duration                    : 1 h 54 min
    Bit rate mode               : Variable
    Bit rate                    : 25.8 Mb/s
    Width                       : 1 920 pixels
    Height                      : 1 080 pixels
    Display aspect ratio        : 16:9
    Frame rate mode             : Constant
    Frame rate                  : 23.976 (24000/1001) FPS
    Color space                 : YUV
    Chroma subsampling          : 4:2:0
    Bit depth                   : 8 bits
    Scan type                   : Progressive
    Bits/(Pixel*Frame)          : 0.519
    Stream size                 : 20.6 GiB (92%)
    Default                     : Yes
    Forced                      : No

    Audio #1
    ID                          : 2
    Format                      : AC-3
    Format/Info                 : Audio Coding 3
    Commercial name             : Dolby Digital
    Codec ID                    : A_AC3
    Duration                    : 1 h 54 min
    Bit rate mode               : Constant
    Bit rate                    : 192 kb/s
    Channel(s)                  : 2 channels
    Channel layout              : L R
    Sampling rate               : 48.0 kHz
    Frame rate                  : 31.250 FPS (1536 SPF)
    Compression mode            : Lossy
    Delay relative to video     : 5 ms
    Stream size                 : 157 MiB (1%)
    Language                    : Spanish
    Service kind                : Complete Main
    Default                     : Yes
    Forced                      : No

    Audio #2
    ID                          : 3
    Format                      : DTS XLL
    Format/Info                 : Digital Theater Systems
    Commercial name             : DTS-HD Master Audio
    Codec ID                    : A_DTS
    Duration                    : 1 h 54 min
    Bit rate mode               : Variable
    Bit rate                    : 2 192 kb/s
    Channel(s)                  : 6 channels
    Channel layout              : C L R Ls Rs LFE
    Sampling rate               : 48.0 kHz
    Frame rate                  : 93.750 FPS (512 SPF)
    Bit depth                   : 16 bits
    Compression mode            : Lossless
    Stream size                 : 1.75 GiB (8%)
    Language                    : English
    Default                     : No
    Forced                      : No

    Text
    ID                          : 4
    Format                      : UTF-8
    Codec ID                    : S_TEXT/UTF8
    Codec ID/Info               : UTF-8 Plain Text
    Duration                    : 1 h 53 min
    Bit rate                    : 31 b/s
    Count of elements           : 1031
    Stream size                 : 26.0 KiB (0%)
    Language                    : Spanish
    Default                     : No
    Forced                      : No

    Menu
    00:00:00.000                : :Chapter 1
    00:10:13.571                : :Chapter 2
    00:20:24.557                : :Chapter 3
    00:31:05.697                : :Chapter 4
    00:41:18.935                : :Chapter 5
    00:51:08.274                : :Chapter 6
    01:01:21.052                : :Chapter 7
    01:11:53.434                : :Chapter 8
    01:23:58.867                : :Chapter 9
    01:33:18.718                : :Chapter 10
    01:41:57.445                : :Chapter 11
    01:47:34.448                : :Chapter 12

  • Peso: 22.5 GiB

Sinopsis

Cuando sentimos una especie de presencia invisible, es que un ángel de la guarda está entre nosotros. Éste es el caso de Maggie, una cardióloga por la que empieza a interesarse Seth, un ángel llegado del cielo. El único obstáculo en su relación es la inmortalidad de Seth.

Ficha técnica

Video trailer de la película

Enlaces de descarga

Rip de Bluray

Descargar City Of Angels (1998) REMUX 1080P – CMHDD




Aportes de DPeliculasHDmega la pass es:dpeliculashdmega.org Aportes de CinemaniaHD la pass es:cinemaniahdd.com
Guardado en : Drama , Fantasía , Remux , Romance

Películas relacionadas

  • Wire Room (2022) REMUX 1080p Latino

    Wire Room (2022) REMUX 1080p Latino

    2022
    Wire Room (2022) REMUX 1080p Latino

    1h 37m 2022

    Descargar Wire Room (2022) REMUX 1080p Latino. Mientras está de servicio en la sala de cables, un agente...

    Director: Matt Eskandari

    Género: Acción

    Actores: Texas Battle

  • Alarido (2022) REMUX 1080p Latino

    Alarido (2022) REMUX 1080p Latino

    2022
    Alarido (2022) REMUX 1080p Latino

    1h 29m 2022

    Descargar Alarido (2022) REMUX 1080p Latino. Una joven madre soltera es cautiva junto con sus dos hijos...

    Director: D.J. Caruso

    Género: Remux

    Actores: Vincent Gallo

  • After: Amor infinito (2022) AMZN WEB-DL 1080p Latino

    After: Amor infinito (2022) AMZN WEB-DL 1080p Latino

    2022
    After: Amor infinito (2022) AMZN WEB-DL 1080p Latino

    1h 35m 2022

    Descargar After: Amor infinito (2022) AMZN WEB-DL 1080p Latino. El amor de Tessa y Hardin nunca ha sido...

    Director: Castille Landon

    Género: Drama

    Actores: Velizar Nikolaev Biney

descargar City Of Angels (1998) REMUX 1080P – CMHDD Full 1080p 1080p gratis, City Of Angels (1998) REMUX 1080P – CMHDD Full 1080p mega 1 link, City Of Angels (1998) REMUX 1080P – CMHDD Full 1080p pelicula completa, descargar City Of Angels (1998) REMUX 1080P – CMHDD Full 1080p gratis en mega.

City Of Angels (1998) REMUX 1080P – CMHDD pelicula full hd, City Of Angels (1998) REMUX 1080P – CMHDD mega latino, City Of Angels (1998) REMUX 1080P – CMHDD 4k latino, City Of Angels (1998) REMUX 1080P – CMHDD pelicula completa, City Of Angels (1998) REMUX 1080P – CMHDD descargar gratis, descargar City Of Angels (1998) REMUX 1080P – CMHDD pelicula latino, City Of Angels (1998) REMUX 1080P – CMHDD 1 link mega, City Of Angels (1998) REMUX 1080P – CMHDD 1 link google drive, City Of Angels (1998) REMUX 1080P – CMHDD hd 1080p latino.
Comentarios 0