×

¿Problemas para descargar con Mozilla, EDGE? Deshabilita la opción "Abrir vinculos en una pestaña nueva" tal como lo muestra ésta imagen.

City Of Angels (1998) HD 1080P – CMHDD

316 vistas

Información de City Of Angels (1998) HD 1080P – CMHDD

Datos de la película

  • Calidad: 1080p
  • Audio: Español Latino AC3 2.0 BLURAY - Ingles AC3 5.1 BLURAY
  • Subtitulos: Español Latino SRT
  • Resolución: 1920x800
  • Formato: MKV
  • Codec: H.264
  • Encoder: Dracarys
  • Mediainfo: Clic para Mostrar Datos Ver
  • Format                      : Matroska
    Format version              : Version 4
    File size                   : 3.37 GiB
    Duration                    : 1 h 54 min
    Overall bit rate            : 4 224 kb/s
    Movie name                  : City Of Angels (1998) HD 1080P - CMHDD
    Encoded date                : UTC 2020-05-12 03:36:01
    Writing application         : mkvmerge v46.0.0 ('No Deeper Escape') 64-bit
    Writing library             : libebml v1.3.10 + libmatroska v1.5.2 / Lavf58.29.100

    Video
    ID                          : 1
    Format                      : AVC
    Format/Info                 : Advanced Video Codec
    Format profile              : High@L4.1
    Format settings             : CABAC / 5 Ref Frames
    Format settings, CABAC      : Yes
    Format settings, Reference  : 5 frames
    Codec ID                    : V_MPEG4/ISO/AVC
    Duration                    : 1 h 54 min
    Bit rate                    : 3 500 kb/s
    Width                       : 1 920 pixels
    Height                      : 800 pixels
    Display aspect ratio        : 2.40:1
    Frame rate mode             : Constant
    Frame rate                  : 23.976 (24000/1001) FPS
    Color space                 : YUV
    Chroma subsampling          : 4:2:0
    Bit depth                   : 8 bits
    Scan type                   : Progressive
    Bits/(Pixel*Frame)          : 0.095
    Stream size                 : 2.70 GiB (80%)
    Writing library             : x264 core 157 r2935 545de2f
    Encoding settings           : cabac=1 / ref=5 / deblock=1:0:0 / analyse=0x3:0x113 / me=hex / subme=8 / psy=1 / psy_rd=1.00:0.00 / mixed_ref=1 / me_range=16 / chroma_me=1 / trellis=2 / 8x8dct=1 / cqm=0 / deadzone=21,11 / fast_pskip=1 / chroma_qp_offset=-2 / threads=24 / lookahead_threads=4 / sliced_threads=0 / nr=0 / decimate=1 / interlaced=0 / bluray_compat=0 / constrained_intra=0 / bframes=3 / b_pyramid=2 / b_adapt=1 / b_bias=0 / direct=3 / weightb=1 / open_gop=0 / weightp=2 / keyint=240 / keyint_min=24 / scenecut=40 / intra_refresh=0 / rc_lookahead=50 / rc=abr / mbtree=1 / bitrate=3500 / ratetol=1.0 / qcomp=0.60 / qpmin=0 / qpmax=69 / qpstep=4 / vbv_maxrate=62500 / vbv_bufsize=78125 / nal_hrd=none / filler=0 / ip_ratio=1.40 / aq=1:1.00
    Language                    : English
    Default                     : Yes
    Forced                      : No
    Color range                 : Limited
    Color primaries             : BT.709
    Transfer characteristics    : BT.709
    Matrix coefficients         : BT.709

    Audio #1
    ID                          : 2
    Format                      : AC-3
    Format/Info                 : Audio Coding 3
    Commercial name             : Dolby Digital
    Codec ID                    : A_AC3
    Duration                    : 1 h 54 min
    Bit rate mode               : Constant
    Bit rate                    : 192 kb/s
    Channel(s)                  : 2 channels
    Channel layout              : L R
    Sampling rate               : 48.0 kHz
    Frame rate                  : 31.250 FPS (1536 SPF)
    Compression mode            : Lossy
    Stream size                 : 157 MiB (5%)
    Language                    : Spanish
    Service kind                : Complete Main
    Default                     : Yes
    Forced                      : No

    Audio #2
    ID                          : 3
    Format                      : AC-3
    Format/Info                 : Audio Coding 3
    Commercial name             : Dolby Digital
    Codec ID                    : A_AC3
    Duration                    : 1 h 54 min
    Bit rate mode               : Constant
    Bit rate                    : 640 kb/s
    Channel(s)                  : 6 channels
    Channel layout              : L R C LFE Ls Rs
    Sampling rate               : 48.0 kHz
    Frame rate                  : 31.250 FPS (1536 SPF)
    Compression mode            : Lossy
    Delay relative to video     : -5 ms
    Stream size                 : 523 MiB (15%)
    Language                    : English
    Service kind                : Complete Main
    Default                     : No
    Forced                      : No

    Text
    ID                          : 4
    Format                      : UTF-8
    Codec ID                    : S_TEXT/UTF8
    Codec ID/Info               : UTF-8 Plain Text
    Duration                    : 1 h 53 min
    Bit rate                    : 31 b/s
    Count of elements           : 1031
    Stream size                 : 26.0 KiB (0%)
    Language                    : Spanish
    Default                     : No
    Forced                      : No

    Menu
    00:00:00.000                : :Chapter 1
    00:10:13.571                : :Chapter 2
    00:20:24.557                : :Chapter 3
    00:31:05.697                : :Chapter 4
    00:41:18.935                : :Chapter 5
    00:51:08.274                : :Chapter 6
    01:01:21.052                : :Chapter 7
    01:11:53.434                : :Chapter 8
    01:23:58.867                : :Chapter 9
    01:33:18.718                : :Chapter 10
    01:41:57.445                : :Chapter 11
    01:47:34.448                : :Chapter 12

  • Peso: 3.37 GiB

Sinopsis

Cuando sentimos una especie de presencia invisible, es que un ángel de la guarda está entre nosotros. Éste es el caso de Maggie, una cardióloga por la que empieza a interesarse Seth, un ángel llegado del cielo. El único obstáculo en su relación es la inmortalidad de Seth.

Ficha técnica

Video trailer de la película

Enlaces de descarga

Rip de Bluray

Descargar City Of Angels (1998) HD 1080P – CMHDD




Aportes de DPeliculasHDmega la pass es:dpeliculashdmega.org Aportes de CinemaniaHD la pass es:cinemaniahdd.com
Guardado en : Drama , Fantasía , HD 1080p , Romance

Películas relacionadas

descargar City Of Angels (1998) HD 1080P – CMHDD 1080p 1080p gratis, City Of Angels (1998) HD 1080P – CMHDD 1080p mega 1 link, City Of Angels (1998) HD 1080P – CMHDD 1080p pelicula completa, descargar City Of Angels (1998) HD 1080P – CMHDD 1080p gratis en mega.

City Of Angels (1998) HD 1080P – CMHDD pelicula full hd, City Of Angels (1998) HD 1080P – CMHDD mega latino, City Of Angels (1998) HD 1080P – CMHDD 4k latino, City Of Angels (1998) HD 1080P – CMHDD pelicula completa, City Of Angels (1998) HD 1080P – CMHDD descargar gratis, descargar City Of Angels (1998) HD 1080P – CMHDD pelicula latino, City Of Angels (1998) HD 1080P – CMHDD 1 link mega, City Of Angels (1998) HD 1080P – CMHDD 1 link google drive, City Of Angels (1998) HD 1080P – CMHDD hd 1080p latino.
Comentarios 0