×

¿Problemas para descargar con Mozilla, EDGE? Deshabilita la opción "Abrir vinculos en una pestaña nueva" tal como lo muestra ésta imagen.

Citadel (2023) Primera Temporada AMZN WEB-DL 1080p Latino

322 vistas

Información de Citadel (2023) Primera Temporada AMZN WEB-DL 1080p Latino

Datos de la película

  • Calidad: 1080p
  • Audio: Español Latino AC3 5.1 WEB-DL - Ingles AC3 5.1 WEB-DL
  • Subtitulos: No
  • Resolución: 1920x1080
  • Formato: MKV
  • Codec: H.264
  • Encoder: cinemaniahdd
  • Mediainfo: Clic para Mostrar Datos Ver
  • Citadel T01E01 AMZN WEB-DL 1080p Latino [CNMNHDD].mkv
    Format                      : Matroska
    Format version              : Version 4
    File size                   : 2.02 GiB
    Duration                    : 41 min 55 s
    Overall bit rate            : 6 887 kb/s
    Movie name                  : Citadel S01E01 - The Human Enigma [1080p] - CinemaniaHDD.Net
    Encoded date                : UTC 2023-04-28 00:05:47
    Writing application         : mkvmerge v56.1.0 ('My Friend') 64-bit
    Writing library             : libebml v1.4.2 + libmatroska v1.6.4

    Video
    ID                          : 1
    Format                      : AVC
    Format/Info                 : Advanced Video Codec
    Format profile              : High@L4
    Format settings             : CABAC / 4 Ref Frames
    Format settings, CABAC      : Yes
    Format settings, Reference  : 4 frames
    Codec ID                    : V_MPEG4/ISO/AVC
    Duration                    : 41 min 55 s
    Bit rate mode               : Constant
    Bit rate                    : 4 964 kb/s
    Nominal bit rate            : 10 000 kb/s
    Width                       : 1 920 pixels
    Height                      : 800 pixels
    Display aspect ratio        : 2.40:1
    Frame rate mode             : Constant
    Frame rate                  : 24.000 FPS
    Color space                 : YUV
    Chroma subsampling          : 4:2:0
    Bit depth                   : 8 bits
    Scan type                   : Progressive
    Bits/(Pixel*Frame)          : 0.135
    Stream size                 : 1.45 GiB (72%)
    Title                       : CinemaniaHDD
    Default                     : Yes
    Forced                      : No
    Color range                 : Limited
    Color primaries             : BT.709
    Transfer characteristics    : BT.709
    Matrix coefficients         : BT.709

    Audio #1
    ID                          : 2
    Format                      : AC-3
    Format/Info                 : Audio Coding 3
    Commercial name             : Dolby Digital
    Codec ID                    : A_AC3
    Duration                    : 41 min 55 s
    Bit rate mode               : Constant
    Bit rate                    : 640 kb/s
    Channel(s)                  : 6 channels
    Channel layout              : L R C LFE Ls Rs
    Sampling rate               : 48.0 kHz
    Frame rate                  : 31.250 FPS (1536 SPF)
    Compression mode            : Lossy
    Stream size                 : 192 MiB (9%)
    Title                       : Español latino [CinemaniaHDD]
    Language                    : Spanish
    Service kind                : Complete Main
    Default                     : Yes
    Forced                      : No

    Audio #2
    ID                          : 3
    Format                      : E-AC-3
    Format/Info                 : Enhanced AC-3
    Commercial name             : Dolby Digital Plus
    Codec ID                    : A_EAC3
    Duration                    : 41 min 55 s
    Bit rate mode               : Constant
    Bit rate                    : 640 kb/s
    Channel(s)                  : 6 channels
    Channel layout              : L R C LFE Ls Rs
    Sampling rate               : 48.0 kHz
    Frame rate                  : 31.250 FPS (1536 SPF)
    Compression mode            : Lossy
    Stream size                 : 192 MiB (9%)
    Title                       : Español latino / E-AC3 [CinemaniaHDD]
    Language                    : Spanish
    Service kind                : Complete Main
    Default                     : No
    Forced                      : No

    Audio #3
    ID                          : 4
    Format                      : E-AC-3
    Format/Info                 : Enhanced AC-3
    Commercial name             : Dolby Digital Plus
    Codec ID                    : A_EAC3
    Duration                    : 41 min 55 s
    Bit rate mode               : Constant
    Bit rate                    : 640 kb/s
    Channel(s)                  : 6 channels
    Channel layout              : L R C LFE Ls Rs
    Sampling rate               : 48.0 kHz
    Frame rate                  : 31.250 FPS (1536 SPF)
    Compression mode            : Lossy
    Stream size                 : 192 MiB (9%)
    Title                       : Inglés [CinemaniaHDD]
    Language                    : English
    Service kind                : Complete Main
    Default                     : No
    Forced                      : No

    Text #1
    ID                          : 5
    Format                      : UTF-8
    Codec ID                    : S_TEXT/UTF8
    Codec ID/Info               : UTF-8 Plain Text
    Duration                    : 36 min 41 s
    Bit rate                    : 1 b/s
    Count of elements           : 16
    Stream size                 : 370 Bytes (0%)
    Title                       : Forzados [CinemaniaHDD]
    Language                    : Spanish
    Default                     : Yes
    Forced                      : Yes

    Text #2
    ID                          : 6
    Format                      : UTF-8
    Codec ID                    : S_TEXT/UTF8
    Codec ID/Info               : UTF-8 Plain Text
    Duration                    : 38 min 32 s
    Bit rate                    : 49 b/s
    Count of elements           : 488
    Stream size                 : 13.9 KiB (0%)
    Title                       : Español latino [CinemaniaHDD]
    Language                    : Spanish
    Default                     : No
    Forced                      : No

    Text #3
    ID                          : 7
    Format                      : UTF-8
    Codec ID                    : S_TEXT/UTF8
    Codec ID/Info               : UTF-8 Plain Text
    Duration                    : 38 min 49 s
    Bit rate                    : 66 b/s
    Count of elements           : 645
    Stream size                 : 19.0 KiB (0%)
    Title                       : Inglés [CinemaniaHDD]
    Language                    : English
    Default                     : No
    Forced                      : No

     

  • Peso: 2.02 GiB Aprox ---- 13 GiB in 6 Chapters.

Sinopsis

Ocho años atrás, Citadel, una agencia mundial independiente de espías, fue destruida por un nuevo grupo, Manticore. Con sus recuerdos borrados, los agentes Mason Kane (Richard Madden) y Nadia Singh (Priyanka Chopra Jonas) logran escapar con vida. Ocho años después, el antiguo colega de Mason, Bernard Orlick (Stanley Tucci), le pide ayuda para evitar que Manticore establezca un nuevo orden mundial.

Ficha técnica

Video trailer de la película

Enlaces de descarga

Rip de Bluray

Descargar Citadel (2023) Primera Temporada AMZN WEB-DL 1080p Latino




Aportes de DPeliculasHDmega la pass es:dpeliculashdmega.org Aportes de CinemaniaHD la pass es:cinemaniahdd.com Aportes recientes:cinemaniahdd.net
Guardado en : Action & Adventure , Crimen , Drama , Series

Películas relacionadas

descargar Citadel (2023) Primera Temporada AMZN WEB-DL 1080p Latino 1080p 1080p gratis, Citadel (2023) Primera Temporada AMZN WEB-DL 1080p Latino 1080p mega 1 link, Citadel (2023) Primera Temporada AMZN WEB-DL 1080p Latino 1080p serie completa, descargar Citadel (2023) Primera Temporada AMZN WEB-DL 1080p Latino 1080p gratis en mega.

Citadel (2023) Primera Temporada AMZN WEB-DL 1080p Latino pelicula full hd, Citadel (2023) Primera Temporada AMZN WEB-DL 1080p Latino mega latino, Citadel (2023) Primera Temporada AMZN WEB-DL 1080p Latino 4k latino, Citadel (2023) Primera Temporada AMZN WEB-DL 1080p Latino pelicula completa, Citadel (2023) Primera Temporada AMZN WEB-DL 1080p Latino descargar gratis, descargar Citadel (2023) Primera Temporada AMZN WEB-DL 1080p Latino pelicula latino, Citadel (2023) Primera Temporada AMZN WEB-DL 1080p Latino 1 link mega, Citadel (2023) Primera Temporada AMZN WEB-DL 1080p Latino 1 link google drive, Citadel (2023) Primera Temporada AMZN WEB-DL 1080p Latino hd 1080p latino.
Comentarios 0