×

¿Problemas para descargar con Mozilla, EDGE? Deshabilita la opción "Abrir vinculos en una pestaña nueva" tal como lo muestra ésta imagen.

Cindy la Regia: La serie (2023) Temporada 1 NF WEB-DL 1080p Latino

82 vistas

Información de Cindy la Regia: La serie (2023) Temporada 1 NF WEB-DL 1080p Latino

Datos de la película

  • Calidad: WEBDL
  • Audio: Español Latino AC3 5.1 Netflix
  • Subtitulos: Español Latino SRT- FORZADOS SRT
  • Resolución: 1920x1080p
  • Formato: MKV
  • Codec: H.264
  • Encoder: Melkor
  • Mediainfo: Clic para Mostrar Datos Ver
  • Cindy la Regia The High School Years S01E01 (2023) NF WEB 1080p Latino.mkv
    Format                      : Matroska
    Format version              : Version 4
    File size                   : 1.01 GiB
    Duration                    : 26 min 33 s
    Overall bit rate mode       : Variable
    Overall bit rate            : 5 433 kb/s
    Movie name                  : Cindy la Regia The High School Years S01E01 - Pilot  CinemaniaHDD.Net
    Encoded date                : UTC 2023-12-23 00:54:45
    Writing application         : mkvmerge v59.0.0 ('Shining Star') 64-bit
    Writing library             : libebml v1.4.2 + libmatroska v1.6.4
    Attachments                 : CINEMANIAHD.png
    Site                        : CinemaniaHDD.Net
    Uploader                    : Melkor

    Video
    ID                          : 1
    Format                      : AVC
    Format/Info                 : Advanced Video Codec
    Format profile              : Main@L4
    Format settings             : CABAC / 3 Ref Frames
    Format settings, CABAC      : Yes
    Format settings, Reference  : 3 frames
    Codec ID                    : V_MPEG4/ISO/AVC
    Duration                    : 26 min 33 s
    Bit rate mode               : Variable
    Bit rate                    : 4 663 kb/s
    Nominal bit rate            : 5 000 kb/s
    Maximum bit rate            : 7 500 kb/s
    Width                       : 1 920 pixels
    Height                      : 1 080 pixels
    Display aspect ratio        : 16:9
    Frame rate mode             : Constant
    Frame rate                  : 23.976 (24000/1001) FPS
    Color space                 : YUV
    Chroma subsampling          : 4:2:0
    Bit depth                   : 8 bits
    Scan type                   : Progressive
    Bits/(Pixel*Frame)          : 0.094
    Stream size                 : 886 MiB (86%)
    Title                       : WEB HD1080p [CinemaniaHDD]
    Writing library             : x264 core 148 r2727 7d026e8
    Encoding settings           : cabac=1 / ref=3 / deblock=1:0:0 / analyse=0x1:0x111 / me=umh / subme=10 / psy=1 / psy_rd=1.00:0.00 / mixed_ref=1 / me_range=24 / chroma_me=1 / trellis=2 / 8x8dct=0 / cqm=0 / deadzone=21,11 / fast_pskip=1 / chroma_qp_offset=-2 / threads=6 / lookahead_threads=1 / sliced_threads=0 / nr=0 / decimate=1 / interlaced=0 / bluray_compat=0 / stitchable=1 / constrained_intra=0 / bframes=2 / b_pyramid=0 / b_adapt=2 / b_bias=0 / direct=3 / weightb=1 / open_gop=0 / weightp=2 / keyint=240 / keyint_min=121 / scenecut=0 / intra_refresh=0 / rc_lookahead=48 / rc=2pass / mbtree=1 / bitrate=5000 / ratetol=1.0 / qcomp=0.50 / qpmin=6 / qpmax=51 / qpstep=4 / cplxblur=20.0 / qblur=0.5 / vbv_maxrate=7500 / vbv_bufsize=10000 / nal_hrd=vbr / filler=0 / ip_ratio=1.40 / aq=1:1.00
    Default                     : Yes
    Forced                      : Yes

    Audio
    ID                          : 2
    Format                      : E-AC-3 JOC
    Format/Info                 : Enhanced AC-3 with Joint Object Coding
    Commercial name             : Dolby Digital Plus with Dolby Atmos
    Codec ID                    : A_EAC3
    Duration                    : 26 min 33 s
    Bit rate mode               : Constant
    Bit rate                    : 768 kb/s
    Channel(s)                  : 6 channels
    Channel layout              : L R C LFE Ls Rs
    Sampling rate               : 48.0 kHz
    Frame rate                  : 31.250 FPS (1536 SPF)
    Compression mode            : Lossy
    Stream size                 : 146 MiB (14%)
    Title                       : Español Latino [CinemaniaHDD]
    Language                    : Spanish
    Service kind                : Complete Main
    Default                     : Yes
    Forced                      : Yes
    Complexity index            : 16
    Number of dynamic objects   : 15
    Bed channel count           : 1 channel
    Bed channel configuration   : LFE

    Text #1
    ID                          : 3
    Format                      : UTF-8
    Codec ID                    : S_TEXT/UTF8
    Codec ID/Info               : UTF-8 Plain Text
    Duration                    : 13 min 57 s
    Bit rate                    : 1 b/s
    Count of elements           : 10
    Stream size                 : 150 Bytes (0%)
    Title                       : Forzados-SRT [CinemaniaHDD]
    Language                    : Spanish
    Default                     : Yes
    Forced                      : Yes

    Text #2
    ID                          : 4
    Format                      : UTF-8
    Codec ID                    : S_TEXT/UTF8
    Codec ID/Info               : UTF-8 Plain Text
    Duration                    : 23 min 20 s
    Bit rate                    : 70 b/s
    Count of elements           : 413
    Stream size                 : 12.0 KiB (0%)
    Title                       : Español-SRT [CinemaniaHDD]
    Language                    : Spanish
    Default                     : No
    Forced                      : No

    Text #3
    ID                          : 5
    Format                      : UTF-8
    Codec ID                    : S_TEXT/UTF8
    Codec ID/Info               : UTF-8 Plain Text
    Duration                    : 25 min 55 s
    Bit rate                    : 76 b/s
    Count of elements           : 462
    Stream size                 : 14.5 KiB (0%)
    Title                       : Ingles-SRT [CinemaniaHDD]
    Language                    : English
    Default                     : No
    Forced                      : No

  • Peso: 1 GiB -- 7.4 GiB -- 7 Chapters

Sinopsis

Descargar Cindy la Regia: La serie (2023) Temporada 1 NF WEB-DL 1080p Latino. Cindy es una adolescente que quiere conquistar el mundo, pero antes debe sobrevivir a la prepa… y a la presión de la alta sociedad de San Pedro Garza García. Para ello contará con el mejor squad: sus inseparables amigas, Lu y Tere, y su recién llegada prima chilanga, Angie.

Ficha técnica

Video trailer de la película

Enlaces de descarga

Rip de Bluray

Descargar Cindy la Regia: La serie (2023) Temporada 1 NF WEB-DL 1080p Latino




Aportes de DPeliculasHDmega la pass es:dpeliculashdmega.org Aportes de CinemaniaHD la pass es:cinemaniahdd.com Aportes recientes:cinemaniahdd.net
Guardado en : Comedia , Drama , Netflix , Series

Películas relacionadas

  • iZombie (2016) Temporada 02 Full HD 1080p Latino

    iZombie (2016) Temporada 02 Full HD 1080p Latino

    2015
    iZombie (2016) Temporada 02 Full HD 1080p Latino

    0h 42m 2015

    Descargar iZombie (2016) Temporada 02 Full HD 1080p Latino. Gira en torno a una estudiante de medicina...

    Director: Rob Thomas

    Género: Crimen

    Actores: Rose McIver

  • iZombie (2016) Temporada 02 REMUX 1080p Latino

    iZombie (2016) Temporada 02 REMUX 1080p Latino

    2015
    iZombie (2016) Temporada 02 REMUX 1080p Latino

    0h 42m 2015

    Descargar iZombie (2016) Temporada 02 REMUX 1080p Latino. Gira en torno a una estudiante de medicina...

    Director: Rob Thomas

    Género: Crimen

    Actores: Rose McIver

  • iZombie (2015) Temporada 01 Full HD 1080p Latino

    iZombie (2015) Temporada 01 Full HD 1080p Latino

    2015
    iZombie (2015) Temporada 01 Full HD 1080p Latino

    0h 42m 2015

    Descargar iZombie (2015) Temporada 01 Full HD 1080p Latino. Gira en torno a una estudiante de medicina...

    Director: Rob Thomas

    Género: Crimen

    Actores: Rose McIver

  • iZombie (2015) Temporada 01 REMUX 1080p Latino

    iZombie (2015) Temporada 01 REMUX 1080p Latino

    2015
    iZombie (2015) Temporada 01 REMUX 1080p Latino

    0h 42m 2015

    Descargar iZombie (2015) Temporada 01 REMUX 1080p Latino. Gira en torno a una estudiante de medicina...

    Director: Rob Thomas

    Género: Crimen

    Actores: Rose McIver

descargar Cindy la Regia: La serie (2023) Temporada 1 NF WEB-DL 1080p Latino WEBDL 1080p gratis, Cindy la Regia: La serie (2023) Temporada 1 NF WEB-DL 1080p Latino WEBDL mega 1 link, Cindy la Regia: La serie (2023) Temporada 1 NF WEB-DL 1080p Latino WEBDL serie completa, descargar Cindy la Regia: La serie (2023) Temporada 1 NF WEB-DL 1080p Latino WEBDL gratis en mega.

Cindy la Regia: La serie (2023) Temporada 1 NF WEB-DL 1080p Latino pelicula full hd, Cindy la Regia: La serie (2023) Temporada 1 NF WEB-DL 1080p Latino mega latino, Cindy la Regia: La serie (2023) Temporada 1 NF WEB-DL 1080p Latino 4k latino, Cindy la Regia: La serie (2023) Temporada 1 NF WEB-DL 1080p Latino pelicula completa, Cindy la Regia: La serie (2023) Temporada 1 NF WEB-DL 1080p Latino descargar gratis, descargar Cindy la Regia: La serie (2023) Temporada 1 NF WEB-DL 1080p Latino pelicula latino, Cindy la Regia: La serie (2023) Temporada 1 NF WEB-DL 1080p Latino 1 link mega, Cindy la Regia: La serie (2023) Temporada 1 NF WEB-DL 1080p Latino 1 link google drive, Cindy la Regia: La serie (2023) Temporada 1 NF WEB-DL 1080p Latino hd 1080p latino.
Comentarios 0