El Luchador (2005) Full HD 1080p Latino

37 vistas
1 estrella2 estrellas3 estrellas4 estrellas5 estrellas (Ninguna valoración todavía)
Cargando...

Información de El Luchador (2005) Full HD 1080p Latino

Datos de la película

  • Calidad: Full 1080p
  • Audio: Se especifica abajo de la Sinopsis
  • Subtitulos: Español Latino PGS - Ingles PGS
  • Resolución: 1920x1080p
  • Formato: MKV
  • Codec: H.264
  • Encoder: CinefiloCool
  • Mediainfo: Clic para Mostrar Datos Ver
  • El Luchador (2005) Full HD 1080p Latino-CMHDD.mkv
    Format                      : Matroska
    Format version              : Version 4
    File size                   : 7.56 GiB
    Duration                    : 2 h 24 min
    Overall bit rate            : 7 496 kb/s
    Movie name                  : Cinderella Man (2005) CinemaniaHDD.Net
    Encoded date                : UTC 2020-10-02 07:50:40
    Writing application         : mkvmerge v46.0.0 ('No Deeper Escape') 64-bit
    Writing library             : libebml v1.3.10 + libmatroska v1.5.2
    Attachments                 : CINEMANIAHD.png

    Video
    ID                          : 1
    Format                      : AVC
    Format/Info                 : Advanced Video Codec
    Format profile              : High@L4.1
    Format settings             : CABAC / 4 Ref Frames
    Format settings, CABAC      : Yes
    Format settings, Reference  : 4 frames
    Codec ID                    : V_MPEG4/ISO/AVC
    Duration                    : 2 h 24 min
    Bit rate                    : 4 808 kb/s
    Width                       : 1 920 pixels
    Height                      : 1 080 pixels
    Display aspect ratio        : 16:9
    Frame rate mode             : Constant
    Frame rate                  : 23.976 (24000/1001) FPS
    Color space                 : YUV
    Chroma subsampling          : 4:2:0
    Bit depth                   : 8 bits
    Scan type                   : Progressive
    Bits/(Pixel*Frame)          : 0.097
    Stream size                 : 4.85 GiB (64%)
    Title                       : Full HD1080p [CinemaniaHDD]
    Writing library             : x264 core 157 r2935 545de2f
    Encoding settings           : cabac=1 / ref=4 / deblock=1:0:0 / analyse=0x3:0x133 / me=tesa / subme=11 / psy=1 / psy_rd=1.00:0.00 / mixed_ref=1 / me_range=24 / chroma_me=1 / trellis=2 / 8x8dct=1 / cqm=0 / deadzone=21,11 / fast_pskip=0 / chroma_qp_offset=-2 / threads=24 / lookahead_threads=6 / sliced_threads=0 / nr=0 / decimate=1 / interlaced=0 / bluray_compat=0 / constrained_intra=0 / bframes=16 / b_pyramid=2 / b_adapt=2 / b_bias=0 / direct=3 / weightb=1 / open_gop=0 / weightp=2 / keyint=240 / keyint_min=24 / scenecut=40 / intra_refresh=0 / rc_lookahead=60 / rc=crf / mbtree=1 / crf=19.0 / qcomp=0.60 / qpmin=0 / qpmax=69 / qpstep=4 / vbv_maxrate=62500 / vbv_bufsize=78125 / crf_max=0.0 / nal_hrd=none / filler=0 / ip_ratio=1.40 / aq=1:1.00
    Default                     : Yes
    Forced                      : Yes
    Color range                 : Limited
    Color primaries             : BT.709
    Transfer characteristics    : BT.709
    Matrix coefficients         : BT.709

    Audio #1
    ID                          : 2
    ID in the original source m : 4353 (0x1101)
    Format                      : DTS
    Format/Info                 : Digital Theater Systems
    Codec ID                    : A_DTS
    Duration                    : 2 h 24 min
    Bit rate mode               : Constant
    Bit rate                    : 768 kb/s
    Channel(s)                  : 6 channels
    Channel layout              : C L R Ls Rs LFE
    Sampling rate               : 48.0 kHz
    Frame rate                  : 93.750 FPS (512 SPF)
    Bit depth                   : 24 bits
    Compression mode            : Lossy
    Stream size                 : 793 MiB (10%)
    Title                       : Español Latino BV REDUB [CinemaniaHDD]
    Language                    : Spanish
    Default                     : Yes
    Forced                      : Yes
    Original source medium      : Blu-ray

    Audio #2
    ID                          : 3
    Format                      : DTS
    Format/Info                 : Digital Theater Systems
    Codec ID                    : A_DTS
    Duration                    : 2 h 24 min
    Bit rate mode               : Constant
    Bit rate                    : 1 509 kb/s
    Channel(s)                  : 6 channels
    Channel layout              : C L R Ls Rs LFE
    Sampling rate               : 48.0 kHz
    Frame rate                  : 93.750 FPS (512 SPF)
    Bit depth                   : 24 bits
    Compression mode            : Lossy
    Stream size                 : 1.52 GiB (20%)
    Title                       : Ingles [CinemaniaHDD]
    Language                    : English
    Default                     : No
    Forced                      : No

    Audio #3
    ID                          : 4
    Format                      : AC-3
    Format/Info                 : Audio Coding 3
    Commercial name             : Dolby Digital
    Codec ID                    : A_AC3
    Duration                    : 2 h 24 min
    Bit rate mode               : Constant
    Bit rate                    : 384 kb/s
    Channel(s)                  : 6 channels
    Channel layout              : L R C LFE Ls Rs
    Sampling rate               : 48.0 kHz
    Frame rate                  : 31.250 FPS (1536 SPF)
    Compression mode            : Lossy
    Stream size                 : 396 MiB (5%)
    Title                       : Español Latino BV ORG [CinemaniaHDD]
    Language                    : Spanish
    Service kind                : Complete Main
    Default                     : No
    Forced                      : No

    Text #1
    ID                          : 5
    ID in the original source m : 4611 (0x1203)
    Format                      : PGS
    Muxing mode                 : zlib
    Codec ID                    : S_HDMV/PGS
    Codec ID/Info               : Picture based subtitle format used on BDs/HD-DVDs
    Duration                    : 1 h 34 min
    Bit rate                    : 539 b/s
    Count of elements           : 36
    Stream size                 : 372 KiB (0%)
    Title                       : Forzados-PGS [CinemaniaHDD]
    Language                    : Spanish
    Default                     : No
    Forced                      : No
    Original source medium      : Blu-ray

    Text #2
    ID                          : 6
    ID in the original source m : 4609 (0x1201)
    Format                      : PGS
    Muxing mode                 : zlib
    Codec ID                    : S_HDMV/PGS
    Codec ID/Info               : Picture based subtitle format used on BDs/HD-DVDs
    Duration                    : 2 h 16 min
    Bit rate                    : 34.1 kb/s
    Count of elements           : 3773
    Stream size                 : 33.3 MiB (0%)
    Title                       : Español-PGS [CinemaniaHDD]
    Language                    : Spanish
    Default                     : No
    Forced                      : No
    Original source medium      : Blu-ray

    Text #3
    ID                          : 7
    ID in the original source m : 4608 (0x1200)
    Format                      : PGS
    Muxing mode                 : zlib
    Codec ID                    : S_HDMV/PGS
    Codec ID/Info               : Picture based subtitle format used on BDs/HD-DVDs
    Duration                    : 2 h 14 min
    Bit rate                    : 47.4 kb/s
    Count of elements           : 4325
    Stream size                 : 45.4 MiB (1%)
    Title                       : Ingles-PGS [CinemaniaHDD]
    Language                    : English
    Default                     : No
    Forced                      : No
    Original source medium      : Blu-ray

    Text #4
    ID                          : 8
    Format                      : UTF-8
    Codec ID                    : S_TEXT/UTF8
    Codec ID/Info               : UTF-8 Plain Text
    Duration                    : 2 h 16 min
    Bit rate                    : 1 b/s
    Count of elements           : 34
    Stream size                 : 1.32 KiB (0%)
    Title                       : Forzados-SRT [CinemaniaHDD]
    Language                    : Spanish
    Default                     : Yes
    Forced                      : Yes

    Text #5
    ID                          : 9
    Format                      : UTF-8
    Codec ID                    : S_TEXT/UTF8
    Codec ID/Info               : UTF-8 Plain Text
    Duration                    : 2 h 16 min
    Bit rate                    : 53 b/s
    Count of elements           : 1884
    Stream size                 : 53.2 KiB (0%)
    Title                       : Español-SRT [CinemaniaHDD]
    Language                    : Spanish
    Default                     : No
    Forced                      : No

    Menu
    00:00:00.000                : en:The Next Champ
    00:08:01.022                : en:Past Due
    00:16:24.024                : en:Washed-Up
    00:23:23.819                : en:Decommissioned
    00:28:38.383                : en:Cut Off
    00:38:54.040                : en:Emergency Relief
    00:44:01.180                : en:One Last Chance
    00:49:01.855                : en:Going in Hungry
    00:58:44.687                : en:Sizing Up the Champ
    01:02:54.228                : en:Back to Even
    01:10:41.695                : en:Getting Serious
    01:14:49.276                : en:Don't Back Down
    01:22:52.300                : en:Count Your Blessings
    01:28:18.001                : en:Know What You're Fighting For
    01:36:18.939                : en:Giving Hope
    01:40:45.164                : en:Find a Way Out
    01:44:24.800                : en:Tremendous Underdog
    01:54:35.743                : en:The Main Event
    02:04:42.808                : en:Championship Round
    02:17:44.381                : en:End Titles

  • Peso: 7.56 GiB

Sinopsis

Descargar El Luchador (2005) Full HD 1080p Latino. Basada en una historia real. Después de haberse retirado del boxeo, James J. Braddock decidió volver al cuadrilátero durante los años de la Gran Depresión para poder alimentar a su familia. No era un boxeador con talento, pero su coraje, sacrificio y dignidad lo llevaron hasta la cumbre.

Audio Español Latino AC3 5.1 Doblaje 1 + DTS 5.1 Doblaje 2 – Ingles DTS 5.1 Bluray

Ficha técnica

Video trailer de la película

Enlaces de descarga

Rip de Bluray

Descargar El Luchador (2005) Full HD 1080p Latino




Aportes de DPeliculasHDmega la pass es:dpeliculashdmega.org Aportes de CinemaniaHD la pass es:cinemaniahdd.com

Películas relacionadas

  • The Debt Collector 2 (2020) Full HD 1080p Latino

    The Debt Collector 2 (2020) Full HD 1080p Latino

    2020
    The Debt Collector 2 (2020) Full HD 1080p Latino

    0.0 1h 37m 2020

    French y Sue trabajan en lo que mejor se les da -romper cráneos y aplastar huesos- mientras persiguen...

    Director: Jesse V. Johnson

    Género: Acción

    Actores: Vladimir Kulich

  • Utopia (2020) Temporada 1 AMZN WEB-DL 1080p Latino

    Utopia (2020) Temporada 1 AMZN WEB-DL 1080p Latino

    2020
    Utopia (2020) Temporada 1 AMZN WEB-DL 1080p Latino

    5.0 0h 52m 2020

    Utopía es un thriller conspirativo sobre un grupo de jóvenes fanáticos que descubren que...

    Director: Gillian Flynn

    Género: Action & Adventure

    Actores: Sasha Lane

  • Holidate (2020) NF WEB-DL 1080p Latino

    Holidate (2020) NF WEB-DL 1080p Latino

    2020
    Holidate (2020) NF WEB-DL 1080p Latino

    5.0 0h 0m 2020

    Hartos de estar solteros en vacaciones, dos extraños acuerdan ser los más platónicos del otro durante...

    Director: John Whitesell

    Género: Comedy

    Actores: Sarah Hamff

  • Viernes 13 (2009) Full HD 1080p Latino

    Viernes 13 (2009) Full HD 1080p Latino

    2009
    Viernes 13 (2009) Full HD 1080p Latino

    0.0 1h 37m 2009

    Descargar Viernes 13 (2009) Full HD 1080p Latino. Remake del clásico film de terror, dirigido en 1980...

    Director: Marcus Nispel

    Género: FULL 1080p Plateadas

    Actores: Willa Ford

  • Viernes 13 (2009) UNRATED Killer Cut Full HD 1080p Latino

    Viernes 13 (2009) UNRATED Killer Cut Full HD 1080p Latino

    2009
    Viernes 13 (2009) UNRATED Killer Cut Full HD 1080p Latino

    5.0 1h 37m 2009

    Descargar Viernes 13 (2009) UNRATED Killer Cut Full HD 1080p Latino. Remake del clásico film de terror,...

    Director: Marcus Nispel

    Género: FULL 1080p Plateadas

    Actores: Willa Ford

Comentarios 0