Cincuenta sombras de Grey (2015) [UNRATED] Full 1080p Latino

982 vistas
1 estrella2 estrellas3 estrellas4 estrellas5 estrellas (6 votos, promedio: 3,50 de 5)
Cargando…

Información de Cincuenta sombras de Grey (2015) [UNRATED] Full 1080p Latino

Datos de la película

  • Calidad: Full 1080p
  • Audio: Español Latino DTS 5.1 BLURAY - Ingles DTS 5.1 BLURAY
  • Subtitulos: Español Latino PGS - Ingles PGS
  • Resolución: 1920x1080p
  • Formato: MKV
  • Codec: H.264
  • Encoder: Dracarys
  • Mediainfo: Clic para Mostrar Datos Ver
  • Format                                   : Matroska
    Format version                           : Version 4 / Version 2
    File size                                : 4.16 GiB
    Duration                                 : 2 h 8 min
    Overall bit rate                         : 4 633 kb/s
    Movie name                               : CinemaniaHDD.net
    Encoded date                             : UTC 2018-08-22 07:14:33 / UTC 2018-05-24T09:54:04Z
    Writing application                      : mkvmerge v15.0.0 ('Duel with the Devil') 64-bit
    Writing library                          : libebml v1.3.5 + libmatroska v1.4.5 / Lavf57.7.2

    Video
    ID                                       : 1
    Format                                   : AVC
    Format/Info                              : Advanced Video Codec
    Format profile                           : High@L4.1
    Format settings                          : CABAC / 4 Ref Frames
    Format settings, CABAC                   : Yes
    Format settings, RefFrames               : 4 frames
    Codec ID                                 : V_MPEG4/ISO/AVC
    Duration                                 : 2 h 8 min
    Bit rate                                 : 2 263 kb/s
    Width                                    : 1 920 pixels
    Height                                   : 1 080 pixels
    Display aspect ratio                     : 16:9
    Frame rate mode                          : Constant
    Frame rate                               : 23.976 (24000/1001) FPS
    Color space                              : YUV
    Chroma subsampling                       : 4:2:0
    Bit depth                                : 8 bits
    Scan type                                : Progressive
    Bits/(Pixel*Frame)                       : 0.046
    Stream size                              : 2.03 GiB (49%)
    Title                                    : Cincuenta sombras de Grey (2015) [UNRATED] Full 1080p Latino
    Writing library                          : x264 core 148 r2708 86b7198
    Encoding settings                        : cabac=1 / ref=4 / deblock=1:0:0 / analyse=0x3:0x133 / me=esa / subme=9 / psy=1 / psy_rd=1.00:0.00 / mixed_ref=1 / me_range=16 / chroma_me=1 / trellis=2 / 8x8dct=1 / cqm=0 / deadzone=21,11 / fast_pskip=1 / chroma_qp_offset=-2 / threads=34 / lookahead_threads=2 / sliced_threads=0 / nr=0 / decimate=1 / interlaced=0 / bluray_compat=0 / constrained_intra=0 / bframes=3 / b_pyramid=2 / b_adapt=2 / b_bias=0 / direct=3 / weightb=1 / open_gop=0 / weightp=2 / keyint=240 / keyint_min=24 / scenecut=40 / intra_refresh=0 / rc_lookahead=60 / rc=crf / mbtree=1 / crf=20.0 / qcomp=0.60 / qpmin=0 / qpmax=69 / qpstep=4 / vbv_maxrate=62500 / vbv_bufsize=78125 / crf_max=0.0 / nal_hrd=none / filler=0 / ip_ratio=1.40 / aq=1:1.00
    Language                                 : English
    Default                                  : Yes
    Forced                                   : No
    Color range                              : Limited
    Color primaries                          : BT.709
    Transfer characteristics                 : BT.709
    Matrix coefficients                      : BT.709
    Statistics Tags Issue                    : mkvmerge v15.0.0 ('Duel with the Devil') 64-bit 2018-08-22 07:14:33 / mkvmerge v15.0.0 ('Duel with the Devil') 64-bit 2018-08-22 07:14:33 / UTC 2018-05-24T09:54:04Z
    FromStats_BitRate                        : 2334758
    FromStats_Duration                       : 02:08:29.702000000
    FromStats_FrameCount                     : 184848
    FromStats_StreamSize                     : 2250036772

    Audio #1
    ID                                       : 2
    Format                                   : DTS
    Format/Info                              : Digital Theater Systems
    Mode                                     : 16
    Format settings, Endianness              : Big
    Codec ID                                 : A_DTS
    Duration                                 : 2 h 8 min
    Bit rate mode                            : Constant
    Bit rate                                 : 768 kb/s
    Channel(s)                               : 6 channels
    Channel positions                        : Front: L C R, Side: L R, LFE
    Sampling rate                            : 48.0 kHz
    Frame rate                               : 93.750 FPS (512 SPF)
    Bit depth                                : 24 bits
    Compression mode                         : Lossy
    Delay relative to video                  : 9 ms
    Stream size                              : 706 MiB (17%)
    Language                                 : Spanish
    Default                                  : Yes
    Forced                                   : No
    Statistics Tags Issue                    : mkvmerge v15.0.0 ('Duel with the Devil') 64-bit 2018-08-22 07:14:33 / mkvmerge v15.0.0 ('Duel with the Devil') 64-bit 2018-08-22 07:14:33 / UTC 2018-05-24T09:54:04Z
    FromStats_BitRate                        : 767999
    FromStats_Duration                       : 02:08:30.401000000
    FromStats_FrameCount                     : 722850
    FromStats_StreamSize                     : 740198400

    Audio #2
    ID                                       : 3
    Format                                   : DTS
    Format/Info                              : Digital Theater Systems
    Mode                                     : 16
    Format settings, Endianness              : Big
    Codec ID                                 : A_DTS
    Duration                                 : 2 h 8 min
    Bit rate mode                            : Constant
    Bit rate                                 : 1 509 kb/s
    Channel(s)                               : 6 channels
    Channel positions                        : Front: L C R, Side: L R, LFE
    Sampling rate                            : 48.0 kHz
    Frame rate                               : 93.750 FPS (512 SPF)
    Bit depth                                : 24 bits
    Compression mode                         : Lossy
    Stream size                              : 1.35 GiB (33%)
    Language                                 : English
    Default                                  : No
    Forced                                   : No
    Statistics Tags Issue                    : mkvmerge v15.0.0 ('Duel with the Devil') 64-bit 2018-08-22 07:14:33 / mkvmerge v15.0.0 ('Duel with the Devil') 64-bit 2018-08-22 07:14:33 / UTC 2018-05-24T09:54:04Z
    FromStats_BitRate                        : 1508999
    FromStats_Duration                       : 02:08:29.686000000
    FromStats_FrameCount                     : 722783
    FromStats_StreamSize                     : 1454239396

    Text #1
    ID                                       : 4
    Format                                   : PGS
    Muxing mode                              : zlib
    Codec ID                                 : S_HDMV/PGS
    Codec ID/Info                            : Picture based subtitle format used on BDs/HD-DVDs
    Title                                    : Forzados
    Language                                 : Spanish
    Default                                  : Yes
    Forced                                   : Yes
    Statistics Tags Issue                    : mkvmerge v15.0.0 ('Duel with the Devil') 64-bit 2018-08-22 07:14:33 / mkvmerge v15.0.0 ('Duel with the Devil') 64-bit 2018-08-22 07:14:33 / UTC 2018-05-24T09:54:04Z
    FromStats_BitRate                        : 971
    FromStats_Duration                       : 01:58:41.253000000
    FromStats_FrameCount                     : 86
    FromStats_StreamSize                     : 864717

    Text #2
    ID                                       : 5
    Format                                   : PGS
    Muxing mode                              : zlib
    Codec ID                                 : S_HDMV/PGS
    Codec ID/Info                            : Picture based subtitle format used on BDs/HD-DVDs
    Language                                 : Spanish
    Default                                  : No
    Forced                                   : No
    Statistics Tags Issue                    : mkvmerge v15.0.0 ('Duel with the Devil') 64-bit 2018-08-22 07:14:33 / mkvmerge v15.0.0 ('Duel with the Devil') 64-bit 2018-08-22 07:14:33 / UTC 2018-05-24T09:54:04Z
    FromStats_BitRate                        : 26067
    FromStats_Duration                       : 01:58:44.548000000
    FromStats_FrameCount                     : 2762
    FromStats_StreamSize                     : 23214615

    Text #3
    ID                                       : 6
    Format                                   : PGS
    Muxing mode                              : zlib
    Codec ID                                 : S_HDMV/PGS
    Codec ID/Info                            : Picture based subtitle format used on BDs/HD-DVDs
    Language                                 : English
    Default                                  : No
    Forced                                   : No
    Statistics Tags Issue                    : mkvmerge v15.0.0 ('Duel with the Devil') 64-bit 2018-08-22 07:14:33 / mkvmerge v15.0.0 ('Duel with the Devil') 64-bit 2018-08-22 07:14:33 / UTC 2018-05-24T09:54:04Z
    FromStats_BitRate                        : 32537
    FromStats_Duration                       : 01:59:28.578000000
    FromStats_FrameCount                     : 3272
    FromStats_StreamSize                     : 29155833

    Menu
    00:00:00.000                             : :Chapter 1
    00:10:25.917                             : :Chapter 2
    00:14:27.158                             : :Chapter 3
    00:20:30.563                             : :Chapter 4
    00:24:04.318                             : :Chapter 5
    00:29:48.578                             : :Chapter 6
    00:35:06.479                             : :Chapter 7
    00:40:17.957                             : :Chapter 8
    00:46:32.748                             : :Chapter 9
    00:50:20.518                             : :Chapter 10
    00:57:03.629                             : :Chapter 11
    01:02:18.985                             : :Chapter 12
    01:06:49.797                             : :Chapter 13
    01:14:27.088                             : :Chapter 14
    01:22:15.264                             : :Chapter 15
    01:31:10.882                             : :Chapter 16
    01:38:13.137                             : :Chapter 17
    01:46:19.331                             : :Chapter 18
    01:53:18.750                             : :Chapter 19
    02:01:41.419                             : :Chapter 20

  • Peso: 4.16 GiB

Sinopsis

Cuando la estudiante de Literatura Anastasia Steele recibe el encargo de entrevistar al exitoso y joven empresario Christian Grey, queda impresionada al encontrarse ante un hombre atractivo, seductor y también muy intimidante. La inexperta e inocente Ana intenta olvidarle, pero pronto comprende cuánto le desea. Cuando la pareja por fin inicia una apasionada relación, Ana se sorprende por las peculiares prácticas eróticas de Grey, al tiempo que descubre los límites de sus propios y más oscuros deseos.

Ficha técnica

Video trailer de la película

Enlaces de descarga

Rip de Bluray

Descargar Cincuenta sombras de Grey (2015) [UNRATED] Full 1080p Latino




Aportes de DPeliculasHDmega la pass es:dpeliculashdmega.org Aportes de CinemaniaHD la pass es:cinemaniahdd.com

Películas relacionadas

  • Godzilla (2014) 1080p Latino

    2014
    Godzilla (2014) 1080p Latino

    0.0 2h 3m 2014

    Descargar Godzilla (2014) 1080p Latino, Mega, Google Drive, Torrent. Gareth Edwards dirige este "reboot",...

    Director: Jessica Clothier

    Género: Acción

    Actores: Yuki Morita

  • Godzilla (2014) Full 1080p Latino

    2014
    Godzilla (2014) Full 1080p Latino

    4.2 2h 3m 2014

    Descargar Godzilla (2014) Full 1080p Latino, Mega, Google Drive, Torrent. Gareth Edwards dirige este...

    Director: Jessica Clothier

    Género: Acción

    Actores: Yuki Morita

  • Un pequeño favor (2018) Full 1080p Latino

    2018
    Un pequeño favor (2018) Full 1080p Latino

    5.0 1h 57m 2018

    Descargar Un pequeño favor (2018) Full 1080p Latino, Mega, Google Drive, Torrent. Stephanie es una joven...

    Director: Paul Feig

    Género: Crimen

    Actores: Zach Smadu

Comentarios 0