×

¿Problemas para descargar con Mozilla, EDGE? Deshabilita la opción "Abrir vinculos en una pestaña nueva" tal como lo muestra ésta imagen.

Chucky (2021) Temporada 01 Full HD 1080p Latino

528 vistas

Información de Chucky (2021) Temporada 01 Full HD 1080p Latino

Datos de la película

  • Calidad: Full 1080p
  • Audio: Español Latino AC3 5.1 WEB-DL - Ingles DTS 5.1 BLURAY
  • Subtitulos: Español Latino SRT- FORZADOS SRT
  • Resolución: 1920x1080p
  • Formato: MKV
  • Codec: H.264
  • Encoder: CinefiloCool
  • Mediainfo: Clic para Mostrar Datos Ver
  • Chucky S01E01 (2021) Full HD 1080p Latino-CMHDD.mkv
    Format                      : Matroska
    Format version              : Version 4
    File size                   : 1.83 GiB
    Duration                    : 46 min 28 s
    Overall bit rate            : 5 636 kb/s
    Movie name                  : Chucky S01E01 - Death.By.Misadventure CinemaniaHDD.Net
    Encoded date                : UTC 2022-05-22 19:07:28
    Writing application         : mkvmerge v56.1.0 ('My Friend') 64-bit
    Writing library             : libebml v1.4.2 + libmatroska v1.6.4
    Attachments                 : CINEMANIAHD.png

    Video
    ID                          : 1
    Format                      : AVC
    Format/Info                 : Advanced Video Codec
    Format profile              : High@L4.1
    Format settings             : CABAC / 4 Ref Frames
    Format settings, CABAC      : Yes
    Format settings, Reference  : 4 frames
    Codec ID                    : V_MPEG4/ISO/AVC
    Duration                    : 46 min 28 s
    Bit rate                    : 3 720 kb/s
    Width                       : 1 920 pixels
    Height                      : 1 080 pixels
    Display aspect ratio        : 16:9
    Frame rate mode             : Constant
    Frame rate                  : 23.976 (24000/1001) FPS
    Color space                 : YUV
    Chroma subsampling          : 4:2:0
    Bit depth                   : 8 bits
    Scan type                   : Progressive
    Bits/(Pixel*Frame)          : 0.075
    Stream size                 : 1.21 GiB (66%)
    Title                       : Full HD1080p [CinemaniaHDD]
    Writing library             : x264 core 163 r3059 b684ebe0
    Encoding settings           : cabac=1 / ref=4 / deblock=1:0:0 / analyse=0x3:0x133 / me=esa / subme=10 / psy=1 / psy_rd=1.00:0.00 / mixed_ref=1 / me_range=24 / chroma_me=1 / trellis=2 / 8x8dct=1 / cqm=0 / deadzone=21,11 / fast_pskip=1 / chroma_qp_offset=-2 / threads=24 / lookahead_threads=4 / sliced_threads=0 / nr=0 / decimate=1 / interlaced=0 / bluray_compat=0 / constrained_intra=0 / bframes=8 / b_pyramid=2 / b_adapt=2 / b_bias=0 / direct=3 / weightb=1 / open_gop=0 / weightp=2 / keyint=240 / keyint_min=24 / scenecut=40 / intra_refresh=0 / rc_lookahead=60 / rc=crf / mbtree=1 / crf=20.0 / qcomp=0.60 / qpmin=0 / qpmax=69 / qpstep=4 / vbv_maxrate=62500 / vbv_bufsize=78125 / crf_max=0.0 / nal_hrd=none / filler=0 / ip_ratio=1.40 / aq=1:1.00
    Default                     : Yes
    Forced                      : Yes
    Color range                 : Limited
    Color primaries             : BT.709
    Transfer characteristics    : BT.709
    Matrix coefficients         : BT.709

    Audio #1
    ID                          : 2
    Format                      : AC-3
    Format/Info                 : Audio Coding 3
    Commercial name             : Dolby Digital
    Codec ID                    : A_AC3
    Duration                    : 46 min 28 s
    Bit rate mode               : Constant
    Bit rate                    : 384 kb/s
    Channel(s)                  : 6 channels
    Channel layout              : L R C LFE Ls Rs
    Sampling rate               : 48.0 kHz
    Frame rate                  : 31.250 FPS (1536 SPF)
    Compression mode            : Lossy
    Stream size                 : 128 MiB (7%)
    Title                       : Español Latino [CinemaniaHDD]
    Language                    : Spanish
    Service kind                : Complete Main
    Default                     : Yes
    Forced                      : Yes

    Audio #2
    ID                          : 3
    Format                      : DTS
    Format/Info                 : Digital Theater Systems
    Codec ID                    : A_DTS
    Duration                    : 46 min 28 s
    Bit rate mode               : Constant
    Bit rate                    : 1 509 kb/s
    Channel(s)                  : 6 channels
    Channel layout              : C L R Ls Rs LFE
    Sampling rate               : 48.0 kHz
    Frame rate                  : 93.750 FPS (512 SPF)
    Bit depth                   : 24 bits
    Compression mode            : Lossy
    Stream size                 : 502 MiB (27%)
    Title                       : Ingles [CinemaniaHDD]
    Language                    : English
    Default                     : No
    Forced                      : No

    Text #1
    ID                          : 4
    Format                      : UTF-8
    Codec ID                    : S_TEXT/UTF8
    Codec ID/Info               : UTF-8 Plain Text
    Duration                    : 43 min 24 s
    Bit rate                    : 1 b/s
    Count of elements           : 20
    Stream size                 : 622 Bytes (0%)
    Title                       : Forzados-SRT [CinemaniaHDD]
    Language                    : Spanish
    Default                     : Yes
    Forced                      : Yes

    Text #2
    ID                          : 5
    Format                      : UTF-8
    Codec ID                    : S_TEXT/UTF8
    Codec ID/Info               : UTF-8 Plain Text
    Duration                    : 46 min 5 s
    Bit rate                    : 47 b/s
    Count of elements           : 597
    Stream size                 : 16.0 KiB (0%)
    Title                       : Español-SRT [CinemaniaHDD]
    Language                    : Spanish
    Default                     : No
    Forced                      : No

    Text #3
    ID                          : 6
    ID in the original source m : 4608 (0x1200)
    Format                      : PGS
    Muxing mode                 : zlib
    Codec ID                    : S_HDMV/PGS
    Codec ID/Info               : Picture based subtitle format used on BDs/HD-DVDs
    Duration                    : 46 min 22 s
    Bit rate                    : 39.1 kb/s
    Count of elements           : 1264
    Stream size                 : 13.0 MiB (1%)
    Title                       : Ingles-PGS [CinemaniaHDD]
    Language                    : English
    Default                     : No
    Forced                      : No
    Original source medium      : Blu-ray

    Menu
    00:00:00.000                : Chapter 01
    00:07:41.419                : Chapter 02
    00:25:37.953                : Chapter 03
    00:38:47.616                : Chapter 04

  • Peso: 1.65GiB - 2.38GiB Aprox C/U. | 15.5GiB Total.

Sinopsis

Descargar Chucky (2021) Temporada 01 Full HD 1080p Latino. Serie de horror creada por Don Mancini y basada en la saga cinematográfica de Child’s Play, es la secuela de Cult of Chucky, el séptimo filme de la franquicia, y es independiente al reinicio de 2019. A mediados del mes de Halloween, Jake Wheeler un adolescente de 14 años consigue un muñeco a quién se apoda Chucky, lo quiere tratar como un amigo. Sin embargo, con el tiempo el muñeco tendrá tendencias violentas a la de un asesino, donde cometerá asesinatos, mientras que Andy Barclay y Kyle Simpson regresan para acabar con Chucky de una vez por todas.

Ficha técnica

Video trailer de la película

Enlaces de descarga

Rip de Bluray

Descargar Chucky (2021) Temporada 01 Full HD 1080p Latino




Aportes de DPeliculasHDmega la pass es:dpeliculashdmega.org Aportes de CinemaniaHD la pass es:cinemaniahdd.com

Películas relacionadas

descargar Chucky (2021) Temporada 01 Full HD 1080p Latino Full 1080p 1080p gratis, Chucky (2021) Temporada 01 Full HD 1080p Latino Full 1080p mega 1 link, Chucky (2021) Temporada 01 Full HD 1080p Latino Full 1080p serie completa, descargar Chucky (2021) Temporada 01 Full HD 1080p Latino Full 1080p gratis en mega.

Chucky (2021) Temporada 01 Full HD 1080p Latino pelicula full hd, Chucky (2021) Temporada 01 Full HD 1080p Latino mega latino, Chucky (2021) Temporada 01 Full HD 1080p Latino 4k latino, Chucky (2021) Temporada 01 Full HD 1080p Latino pelicula completa, Chucky (2021) Temporada 01 Full HD 1080p Latino descargar gratis, descargar Chucky (2021) Temporada 01 Full HD 1080p Latino pelicula latino, Chucky (2021) Temporada 01 Full HD 1080p Latino 1 link mega, Chucky (2021) Temporada 01 Full HD 1080p Latino 1 link google drive, Chucky (2021) Temporada 01 Full HD 1080p Latino hd 1080p latino.
Comentarios 0