×

¿Problemas para descargar con Mozilla, EDGE? Deshabilita la opción "Abrir vinculos en una pestaña nueva" tal como lo muestra ésta imagen.

Chucky (2022) Temporada 2 [4/8] WEB-DL 1080p Latino

41 vistas

Información de Chucky (2022) Temporada 2 [4/8] WEB-DL 1080p Latino

Datos de la película

  • Calidad: 1080p
  • Audio: Español Latino AC3 5.1 WEB-DL - Ingles AC3 5.1 WEB-DL
  • Subtitulos: Español Latino SRT- FORZADOS SRT
  • Resolución: 1920x1080
  • Formato: MKV
  • Codec: H.264
  • Encoder: cinemaniahdd
  • Mediainfo: Clic para Mostrar Datos Ver
  • Chucky T02E01 WEB-DL 1080p Latino [CNMNHDD].mkv
    Format                      : Matroska
    Format version              : Version 4
    File size                   : 2.27 GiB
    Duration                    : 45 min 58 s
    Overall bit rate mode       : Variable
    Overall bit rate            : 7 078 kb/s
    Movie name                  : Chucky S02E01 - Halloween II [1080p] - CinemaniaHDD.Net
    Encoded date                : UTC 2022-11-08 00:19:31
    Writing application         : mkvmerge v56.1.0 ('My Friend') 64-bit
    Writing library             : libebml v1.4.2 + libmatroska v1.6.4

    Video
    ID                          : 1
    Format                      : AVC
    Format/Info                 : Advanced Video Codec
    Format profile              : High@L4
    Format settings             : CABAC / 4 Ref Frames
    Format settings, CABAC      : Yes
    Format settings, Reference  : 4 frames
    Codec ID                    : V_MPEG4/ISO/AVC
    Duration                    : 45 min 58 s
    Bit rate mode               : Variable
    Bit rate                    : 5 795 kb/s
    Maximum bit rate            : 12.7 Mb/s
    Width                       : 1 920 pixels
    Height                      : 1 080 pixels
    Display aspect ratio        : 16:9
    Frame rate mode             : Constant
    Frame rate                  : 23.976 (24000/1001) FPS
    Color space                 : YUV
    Chroma subsampling          : 4:2:0
    Bit depth                   : 8 bits
    Scan type                   : Progressive
    Bits/(Pixel*Frame)          : 0.117
    Stream size                 : 1.86 GiB (82%)
    Title                       : CinemaniaHDD
    Language                    : Spanish
    Default                     : Yes
    Forced                      : No
    Color range                 : Limited
    Color primaries             : BT.709
    Transfer characteristics    : BT.709
    Matrix coefficients         : BT.709

    Audio #1
    ID                          : 2
    Format                      : AC-3
    Format/Info                 : Audio Coding 3
    Commercial name             : Dolby Digital
    Codec ID                    : A_AC3
    Duration                    : 45 min 58 s
    Bit rate mode               : Constant
    Bit rate                    : 384 kb/s
    Channel(s)                  : 6 channels
    Channel layout              : L R C LFE Ls Rs
    Sampling rate               : 48.0 kHz
    Frame rate                  : 31.250 FPS (1536 SPF)
    Compression mode            : Lossy
    Stream size                 : 126 MiB (5%)
    Title                       : Español latino [CinemaniaHDD]
    Language                    : Spanish
    Service kind                : Complete Main
    Default                     : Yes
    Forced                      : No

    Audio #2
    ID                          : 3
    Format                      : E-AC-3
    Format/Info                 : Enhanced AC-3
    Commercial name             : Dolby Digital Plus
    Codec ID                    : A_EAC3
    Duration                    : 45 min 58 s
    Bit rate mode               : Constant
    Bit rate                    : 256 kb/s
    Channel(s)                  : 6 channels
    Channel layout              : L R C LFE Ls Rs
    Sampling rate               : 48.0 kHz
    Frame rate                  : 31.250 FPS (1536 SPF)
    Compression mode            : Lossy
    Stream size                 : 84.2 MiB (4%)
    Title                       : Español latino / E-AC3 [CinemaniaHDD]
    Language                    : Spanish
    Service kind                : Complete Main
    Default                     : No
    Forced                      : No

    Audio #3
    ID                          : 4
    Format                      : E-AC-3
    Format/Info                 : Enhanced AC-3
    Commercial name             : Dolby Digital Plus
    Codec ID                    : A_EAC3
    Duration                    : 45 min 57 s
    Bit rate mode               : Constant
    Bit rate                    : 640 kb/s
    Channel(s)                  : 6 channels
    Channel layout              : L R C LFE Ls Rs
    Sampling rate               : 48.0 kHz
    Frame rate                  : 31.250 FPS (1536 SPF)
    Bit depth                   : 32 bits
    Compression mode            : Lossy
    Stream size                 : 210 MiB (9%)
    Title                       : Inglés [CinemaniaHDD]
    Language                    : English
    Service kind                : Complete Main
    Default                     : No
    Forced                      : No

    Text #1
    ID                          : 5
    Format                      : UTF-8
    Codec ID                    : S_TEXT/UTF8
    Codec ID/Info               : UTF-8 Plain Text
    Duration                    : 42 min 2 s
    Bit rate                    : 2 b/s
    Count of elements           : 24
    Stream size                 : 669 Bytes (0%)
    Title                       : Forzados [CinemaniaHDD]
    Language                    : Spanish
    Default                     : Yes
    Forced                      : Yes

    Text #2
    ID                          : 6
    Format                      : UTF-8
    Codec ID                    : S_TEXT/UTF8
    Codec ID/Info               : UTF-8 Plain Text
    Duration                    : 45 min 38 s
    Bit rate                    : 53 b/s
    Count of elements           : 656
    Stream size                 : 17.8 KiB (0%)
    Title                       : Español latino [CinemaniaHDD]
    Language                    : Spanish
    Default                     : No
    Forced                      : No

    Text #3
    ID                          : 7
    Format                      : UTF-8
    Codec ID                    : S_TEXT/UTF8
    Codec ID/Info               : UTF-8 Plain Text
    Duration                    : 45 min 55 s
    Bit rate                    : 61 b/s
    Count of elements           : 657
    Stream size                 : 20.6 KiB (0%)
    Title                       : Inglés [CinemaniaHDD]
    Language                    : English
    Default                     : No
    Forced                      : No

     

  • Peso: 4.38 GiB C/U --- 4 CAPITULOS AGREGADOS

Sinopsis

A mediados del mes de Halloween, Jake Wheeler un adolescente de 14 años consigue un muñeco a quién se apoda Chucky, lo quiere tratar como un amigo. Sin embargo, con el tiempo el muñeco tendrá tendencias violentas a la de un asesino, donde cometerá asesinatos, mientras que Andy Barclay y Kyle Simpson regresan para acabar con Chucky de una vez por todas.

4 CAPITULOS AGREGADOS

Ficha técnica

Video trailer de la película

Enlaces de descarga

Rip de Bluray

Descargar Chucky (2022) Temporada 2 [4/8] WEB-DL 1080p Latino




Aportes de DPeliculasHDmega la pass es:dpeliculashdmega.org Aportes de CinemaniaHD la pass es:cinemaniahdd.com
Guardado en : Crimen , Sci-Fi & Fantasy , Series

Películas relacionadas

descargar Chucky (2022) Temporada 2 [4/8] WEB-DL 1080p Latino 1080p 1080p gratis, Chucky (2022) Temporada 2 [4/8] WEB-DL 1080p Latino 1080p mega 1 link, Chucky (2022) Temporada 2 [4/8] WEB-DL 1080p Latino 1080p serie completa, descargar Chucky (2022) Temporada 2 [4/8] WEB-DL 1080p Latino 1080p gratis en mega.

Chucky (2022) Temporada 2 [4/8] WEB-DL 1080p Latino pelicula full hd, Chucky (2022) Temporada 2 [4/8] WEB-DL 1080p Latino mega latino, Chucky (2022) Temporada 2 [4/8] WEB-DL 1080p Latino 4k latino, Chucky (2022) Temporada 2 [4/8] WEB-DL 1080p Latino pelicula completa, Chucky (2022) Temporada 2 [4/8] WEB-DL 1080p Latino descargar gratis, descargar Chucky (2022) Temporada 2 [4/8] WEB-DL 1080p Latino pelicula latino, Chucky (2022) Temporada 2 [4/8] WEB-DL 1080p Latino 1 link mega, Chucky (2022) Temporada 2 [4/8] WEB-DL 1080p Latino 1 link google drive, Chucky (2022) Temporada 2 [4/8] WEB-DL 1080p Latino hd 1080p latino.
Comentarios 0