×

¿Problemas para descargar con Mozilla, EDGE? Deshabilita la opción "Abrir vinculos en una pestaña nueva" tal como lo muestra ésta imagen.

Chucky (2021) Primera Temporada WEB-DL 1080p latino

1.198 vistas

Información de Chucky (2021) Primera Temporada WEB-DL 1080p latino

Datos de la película

  • Calidad: 1080p
  • Audio: Español Latino AC3 5.1 WEB-DL - Ingles AC3 5.1 WEB-DL
  • Subtitulos: Español Latino SRT- FORZADOS SRT
  • Resolución: 1920x1080
  • Formato: MKV
  • Codec: H.264
  • Encoder: cinemaniahdd
  • Mediainfo: Clic para Mostrar Datos Ver
  • Chucky T01E01 WEB-DL 1080p Latino [CNMNHDD].mkv
    Format                      : Matroska
    Format version              : Version 4
    File size                   : 2.25 GiB
    Duration                    : 46 min 25 s
    Overall bit rate            : 6 937 kb/s
    Movie name                  : Chucky T01E01 - CinemaniaHDD.Net
    Encoded date                : UTC 2021-10-27 23:17:53
    Writing application         : mkvmerge v56.1.0 ('My Friend') 64-bit
    Writing library             : libebml v1.4.2 + libmatroska v1.6.4

    Video
    ID                          : 1
    Format                      : AVC
    Format/Info                 : Advanced Video Codec
    Format profile              : High@L4
    Format settings             : CABAC / 4 Ref Frames
    Format settings, CABAC      : Yes
    Format settings, Reference  : 4 frames
    Codec ID                    : V_MPEG4/ISO/AVC
    Duration                    : 46 min 25 s
    Bit rate                    : 6 195 kb/s
    Width                       : 1 920 pixels
    Height                      : 1 080 pixels
    Display aspect ratio        : 16:9
    Frame rate mode             : Constant
    Frame rate                  : 23.976 (23976/1000) FPS
    Color space                 : YUV
    Chroma subsampling          : 4:2:0
    Bit depth                   : 8 bits
    Scan type                   : Progressive
    Bits/(Pixel*Frame)          : 0.125
    Stream size                 : 2.00 GiB (89%)
    Title                       : CinemaniaHDD
    Writing library             : x264 core 155
    Encoding settings           : cabac=1 / ref=3 / deblock=1:0:0 / analyse=0x3:0x13 / me=hex / subme=7 / psy=1 / psy_rd=1.00:0.00 / mixed_ref=1 / me_range=16 / chroma_me=1 / trellis=1 / 8x8dct=1 / cqm=0 / deadzone=21,11 / fast_pskip=1 / chroma_qp_offset=-2 / threads=34 / lookahead_threads=5 / sliced_threads=0 / nr=0 / decimate=1 / interlaced=0 / bluray_compat=0 / constrained_intra=0 / bframes=3 / b_pyramid=2 / b_adapt=1 / b_bias=0 / direct=1 / weightb=1 / open_gop=0 / weightp=2 / keyint=250 / keyint_min=23 / scenecut=40 / intra_refresh=0 / rc_lookahead=40 / rc=abr / mbtree=1 / bitrate=6195 / ratetol=1.0 / qcomp=0.60 / qpmin=10 / qpmax=51 / qpstep=4 / ip_ratio=1.40 / aq=1:1.00
    Language                    : English
    Default                     : Yes
    Forced                      : No
    Color range                 : Limited
    Color primaries             : BT.709
    Transfer characteristics    : BT.709
    Matrix coefficients         : BT.709

    Audio #1
    ID                          : 2
    Format                      : AC-3
    Format/Info                 : Audio Coding 3
    Commercial name             : Dolby Digital
    Codec ID                    : A_AC3
    Duration                    : 46 min 25 s
    Bit rate mode               : Constant
    Bit rate                    : 384 kb/s
    Channel(s)                  : 6 channels
    Channel layout              : L R C LFE Ls Rs
    Sampling rate               : 48.0 kHz
    Frame rate                  : 31.250 FPS (1536 SPF)
    Compression mode            : Lossy
    Delay relative to video     : 41 ms
    Stream size                 : 128 MiB (6%)
    Title                       : Español latino [CinemaniaHDD]
    Language                    : Spanish
    Service kind                : Complete Main
    Default                     : Yes
    Forced                      : No

    Audio #2
    ID                          : 3
    Format                      : AC-3
    Format/Info                 : Audio Coding 3
    Commercial name             : Dolby Digital
    Codec ID                    : A_AC3
    Duration                    : 46 min 25 s
    Bit rate mode               : Constant
    Bit rate                    : 384 kb/s
    Channel(s)                  : 6 channels
    Channel layout              : L R C LFE Ls Rs
    Sampling rate               : 48.0 kHz
    Frame rate                  : 31.250 FPS (1536 SPF)
    Compression mode            : Lossy
    Delay relative to video     : 41 ms
    Stream size                 : 128 MiB (6%)
    Title                       : Inglés [CinemaniaHDD]
    Language                    : English
    Service kind                : Complete Main
    Default                     : No
    Forced                      : No

    Text #1
    ID                          : 4
    Format                      : UTF-8
    Codec ID                    : S_TEXT/UTF8
    Codec ID/Info               : UTF-8 Plain Text
    Duration                    : 43 min 24 s
    Bit rate                    : 1 b/s
    Count of elements           : 20
    Stream size                 : 622 Bytes (0%)
    Title                       : Forzados [CinemaniaHDD]
    Language                    : Spanish
    Default                     : Yes
    Forced                      : Yes

    Text #2
    ID                          : 5
    Format                      : UTF-8
    Codec ID                    : S_TEXT/UTF8
    Codec ID/Info               : UTF-8 Plain Text
    Duration                    : 46 min 5 s
    Bit rate                    : 47 b/s
    Count of elements           : 597
    Stream size                 : 16.0 KiB (0%)
    Title                       : Español latino [CinemaniaHDD]
    Language                    : Spanish
    Default                     : No
    Forced                      : No

     

  • Peso: 2.60 GiB Aprox ---- 19 GiB in 8 Chapters.

Sinopsis

Después de que un muñeco vintage de Chucky aparece en una venta de patio suburbana, una ciudad estadounidense se ve sumida en el caos, luego de que una serie de crímenes horribles comienzan a exponer las hipocresías y los secretos de la ciudad.Mientras tanto, la llegada de enemigos y aliados del pasado de Chucky amenaza con exponer la verdad detrás de los acontecimientos así como los orígenes no contados del malvado muñeco.

Ficha técnica

Video trailer de la película

Enlaces de descarga

Rip de Bluray

Descargar Chucky (2021) Primera Temporada WEB-DL 1080p latino




Aportes de DPeliculasHDmega la pass es:dpeliculashdmega.org Aportes de CinemaniaHD la pass es:cinemaniahdd.com
Guardado en : Comedia , Crimen , Sci-Fi & Fantasy , Series

Películas relacionadas

descargar Chucky (2021) Primera Temporada WEB-DL 1080p latino 1080p 1080p gratis, Chucky (2021) Primera Temporada WEB-DL 1080p latino 1080p mega 1 link, Chucky (2021) Primera Temporada WEB-DL 1080p latino 1080p serie completa, descargar Chucky (2021) Primera Temporada WEB-DL 1080p latino 1080p gratis en mega.

Chucky (2021) Primera Temporada WEB-DL 1080p latino pelicula full hd, Chucky (2021) Primera Temporada WEB-DL 1080p latino mega latino, Chucky (2021) Primera Temporada WEB-DL 1080p latino 4k latino, Chucky (2021) Primera Temporada WEB-DL 1080p latino pelicula completa, Chucky (2021) Primera Temporada WEB-DL 1080p latino descargar gratis, descargar Chucky (2021) Primera Temporada WEB-DL 1080p latino pelicula latino, Chucky (2021) Primera Temporada WEB-DL 1080p latino 1 link mega, Chucky (2021) Primera Temporada WEB-DL 1080p latino 1 link google drive, Chucky (2021) Primera Temporada WEB-DL 1080p latino hd 1080p latino.
Comentarios 1
  • Ksillas - 28 octubre, 2021

    GRACIAS DE TODO CORAZON estare pendiente de los demas capitulo son los mejores