×

¿Problemas para descargar con Mozilla, EDGE? Deshabilita la opción "Abrir vinculos en una pestaña nueva" tal como lo muestra ésta imagen.

Chuck: La historia verdadera de Rocky Balboa (2016) REMUX 1080p Latino

636 vistas

Información de Chuck: La historia verdadera de Rocky Balboa (2016) REMUX 1080p Latino

Datos de la película

  • Calidad: Full 1080p
  • Audio: Se especifica abajo de la Sinopsis
  • Subtitulos: Español Latino PGS - Ingles PGS
  • Resolución: 1920x1080p
  • Formato: MKV
  • Codec: H.264
  • Encoder: CinefiloCool
  • Mediainfo: Clic para Mostrar Datos Ver
  • Chuck (2016) REMUX 1080p Latino.mkv
    Format                      : Matroska
    Format version              : Version 4
    File size                   : 24.5 GiB
    Duration                    : 1 h 38 min
    Overall bit rate mode       : Variable
    Overall bit rate            : 35.6 Mb/s
    Movie name                  : Chuck (2016) CinemaniaHDD.Net
    Encoded date                : UTC 2020-04-03 21:47:09
    Writing application         : mkvmerge v42.0.0 ('Overtime') 64-bit
    Writing library             : libebml v1.3.10 + libmatroska v1.5.2
    Attachments                 : CINEMANIAHD.png

    Video
    ID                          : 1
    Format                      : AVC
    Format/Info                 : Advanced Video Codec
    Format profile              : High@L4.1
    Format settings             : CABAC / 4 Ref Frames
    Format settings, CABAC      : Yes
    Format settings, ReFrames   : 4 frames
    Codec ID                    : V_MPEG4/ISO/AVC
    Duration                    : 1 h 38 min
    Bit rate mode               : Variable
    Bit rate                    : 31.7 Mb/s
    Maximum bit rate            : 35.0 Mb/s
    Width                       : 1 920 pixels
    Height                      : 1 080 pixels
    Display aspect ratio        : 16:9
    Frame rate mode             : Constant
    Frame rate                  : 23.976 (24000/1001) FPS
    Color space                 : YUV
    Chroma subsampling          : 4:2:0
    Bit depth                   : 8 bits
    Scan type                   : Progressive
    Bits/(Pixel*Frame)          : 0.637
    Stream size                 : 21.8 GiB (89%)
    Title                       : REMUX HD1080p [CinemaniaHDD]
    Default                     : Yes
    Forced                      : Yes

    Audio #1
    ID                          : 2
    Format                      : AC-3
    Format/Info                 : Audio Coding 3
    Commercial name             : Dolby Digital
    Codec ID                    : A_AC3
    Duration                    : 1 h 38 min
    Bit rate mode               : Constant
    Bit rate                    : 256 kb/s
    Channel(s)                  : 2 channels
    Channel layout              : L R
    Sampling rate               : 48.0 kHz
    Frame rate                  : 31.250 FPS (1536 SPF)
    Bit depth                   : 16 bits
    Compression mode            : Lossy
    Stream size                 : 180 MiB (1%)
    Title                       : Español Latino [CinemaniaHDD]
    Language                    : Spanish
    Service kind                : Complete Main
    Default                     : Yes
    Forced                      : Yes

    Audio #2
    ID                          : 3
    Format                      : DTS XLL
    Format/Info                 : Digital Theater Systems
    Commercial name             : DTS-HD Master Audio
    Codec ID                    : A_DTS
    Duration                    : 1 h 38 min
    Bit rate mode               : Variable
    Bit rate                    : 3 603 kb/s
    Channel(s)                  : 6 channels
    Channel layout              : C L R Ls Rs LFE
    Sampling rate               : 48.0 kHz
    Frame rate                  : 93.750 FPS (512 SPF)
    Bit depth                   : 24 bits
    Compression mode            : Lossless
    Stream size                 : 2.48 GiB (10%)
    Title                       : Ingles [CinemaniaHDD]
    Language                    : English
    Default                     : No
    Forced                      : No

    Text #1
    ID                          : 4
    Format                      : PGS
    Muxing mode                 : zlib
    Codec ID                    : S_HDMV/PGS
    Codec ID/Info               : Picture based subtitle format used on BDs/HD-DVDs
    Duration                    : 1 h 31 min
    Bit rate                    : 47.2 kb/s
    Count of elements           : 3190
    Stream size                 : 31.0 MiB (0%)
    Title                       : Español-PGS [CinemaniaHDD]
    Language                    : Spanish
    Default                     : No
    Forced                      : No

    Text #2
    ID                          : 5
    Format                      : PGS
    Muxing mode                 : zlib
    Codec ID                    : S_HDMV/PGS
    Codec ID/Info               : Picture based subtitle format used on BDs/HD-DVDs
    Duration                    : 1 h 30 min
    Bit rate                    : 52.7 kb/s
    Count of elements           : 3242
    Stream size                 : 34.2 MiB (0%)
    Title                       : Ingles-PGS [CinemaniaHDD]
    Language                    : English
    Default                     : No
    Forced                      : No

    Text #3
    ID                          : 6
    Format                      : UTF-8
    Codec ID                    : S_TEXT/UTF8
    Codec ID/Info               : UTF-8 Plain Text
    Duration                    : 1 h 23 min
    Bit rate                    : 0 b/s
    Count of elements           : 12
    Stream size                 : 316 Bytes (0%)
    Title                       : Forzados-SRT [CinemaniaHDD]
    Language                    : Spanish
    Default                     : Yes
    Forced                      : Yes

    Text #4
    ID                          : 7
    Format                      : UTF-8
    Codec ID                    : S_TEXT/UTF8
    Codec ID/Info               : UTF-8 Plain Text
    Duration                    : 1 h 31 min
    Bit rate                    : 79 b/s
    Count of elements           : 1592
    Stream size                 : 53.4 KiB (0%)
    Title                       : Español-SRT [CinemaniaHDD]
    Language                    : Spanish
    Default                     : No
    Forced                      : No

    Menu
    00:00:00.000                : en:Chapter 01
    00:10:57.990                : en:Chapter 02
    00:17:11.989                : en:Chapter 03
    00:21:05.638                : en:Chapter 04
    00:25:40.121                : en:Chapter 05
    00:30:59.273                : en:Chapter 06
    00:38:24.050                : en:Chapter 07
    00:43:50.376                : en:Chapter 08
    00:52:06.873                : en:Chapter 09
    00:58:39.389                : en:Chapter 10
    01:04:37.164                : en:Chapter 11
    01:10:21.884                : en:Chapter 12
    01:21:22.752                : en:Chapter 13
    01:27:29.077                : en:Chapter 14
    01:32:28.832                : en:Chapter 15

  • Peso: 24.5 GiB

Sinopsis

Descargar Chuck: La historia verdadera de Rocky Balboa (2016) REMUX 1080p Latino. Drama inspirado en la biografía del boxeador Chuck Wepner, el hombre que inspiró el personaje de Rocky Balboa.

Audio Español Latino AC3 2.0 WebDL – Ingles DTS-HD 5.1 Bluray

Ficha técnica

Video trailer de la película

Enlaces de descarga

Rip de Bluray

Descargar Chuck: La historia verdadera de Rocky Balboa (2016) REMUX 1080p Latino




Aportes de DPeliculasHDmega la pass es:dpeliculashdmega.org Aportes de CinemaniaHD la pass es:cinemaniahdd.com
Guardado en : Drama , Remux

Películas relacionadas

descargar Chuck: La historia verdadera de Rocky Balboa (2016) REMUX 1080p Latino Full 1080p 1080p gratis, Chuck: La historia verdadera de Rocky Balboa (2016) REMUX 1080p Latino Full 1080p mega 1 link, Chuck: La historia verdadera de Rocky Balboa (2016) REMUX 1080p Latino Full 1080p pelicula completa, descargar Chuck: La historia verdadera de Rocky Balboa (2016) REMUX 1080p Latino Full 1080p gratis en mega.

Chuck: La historia verdadera de Rocky Balboa (2016) REMUX 1080p Latino pelicula full hd, Chuck: La historia verdadera de Rocky Balboa (2016) REMUX 1080p Latino mega latino, Chuck: La historia verdadera de Rocky Balboa (2016) REMUX 1080p Latino 4k latino, Chuck: La historia verdadera de Rocky Balboa (2016) REMUX 1080p Latino pelicula completa, Chuck: La historia verdadera de Rocky Balboa (2016) REMUX 1080p Latino descargar gratis, descargar Chuck: La historia verdadera de Rocky Balboa (2016) REMUX 1080p Latino pelicula latino, Chuck: La historia verdadera de Rocky Balboa (2016) REMUX 1080p Latino 1 link mega, Chuck: La historia verdadera de Rocky Balboa (2016) REMUX 1080p Latino 1 link google drive, Chuck: La historia verdadera de Rocky Balboa (2016) REMUX 1080p Latino hd 1080p latino.
Comentarios 0