×

¿Problemas para descargar con Mozilla, EDGE? Deshabilita la opción "Abrir vinculos en una pestaña nueva" tal como lo muestra ésta imagen.

Chuck: La historia verdadera de Rocky Balboa (2016) 1080p Latino

1.100 vistas

Información de Chuck: La historia verdadera de Rocky Balboa (2016) 1080p Latino

Datos de la película

  • Calidad: 1080p
  • Audio: Se especifica abajo de la Sinopsis
  • Subtitulos: Español Latino SRT - Ingles SRT
  • Resolución: 1920x1036p
  • Formato: MKV
  • Codec: H.264
  • Encoder: CinefiloCool
  • Mediainfo: Clic para Mostrar Datos Ver
  • Chuck (2016) 1080p Latino-CMHDD.mkv
    Format                      : Matroska
    Format version              : Version 4
    File size                   : 2.80 GiB
    Duration                    : 1 h 38 min
    Overall bit rate            : 4 067 kb/s
    Movie name                  : Chuck: La historia verdadera de Rocky Balboa / (2016) CinemaniaHDD.Net
    Encoded date                : UTC 2020-04-03 05:55:06
    Writing application         : mkvmerge v42.0.0 ('Overtime') 64-bit
    Writing library             : libebml v1.3.10 + libmatroska v1.5.2

    Video
    ID                          : 1
    Format                      : AVC
    Format/Info                 : Advanced Video Codec
    Format profile              : High@L4.1
    Format settings             : CABAC / 4 Ref Frames
    Format settings, CABAC      : Yes
    Format settings, ReFrames   : 4 frames
    Codec ID                    : V_MPEG4/ISO/AVC
    Duration                    : 1 h 38 min
    Bit rate                    : 3 500 kb/s
    Width                       : 1 920 pixels
    Height                      : 1 036 pixels
    Display aspect ratio        : 1.85:1
    Frame rate mode             : Constant
    Frame rate                  : 23.976 (24000/1001) FPS
    Color space                 : YUV
    Chroma subsampling          : 4:2:0
    Bit depth                   : 8 bits
    Scan type                   : Progressive
    Bits/(Pixel*Frame)          : 0.073
    Stream size                 : 2.31 GiB (83%)
    Title                       : HD1080p [CinemaniaHDD]
    Writing library             : x264 core 157 r2935 545de2f
    Encoding settings           : cabac=1 / ref=4 / deblock=1:-1:-1 / analyse=0x3:0x113 / me=hex / subme=8 / psy=1 / psy_rd=1.00:0.15 / mixed_ref=1 / me_range=16 / chroma_me=1 / trellis=2 / 8x8dct=1 / cqm=0 / deadzone=21,11 / fast_pskip=1 / chroma_qp_offset=-3 / threads=32 / lookahead_threads=5 / sliced_threads=0 / nr=0 / decimate=1 / interlaced=0 / bluray_compat=0 / constrained_intra=0 / bframes=3 / b_pyramid=2 / b_adapt=1 / b_bias=0 / direct=3 / weightb=1 / open_gop=0 / weightp=2 / keyint=240 / keyint_min=24 / scenecut=40 / intra_refresh=0 / rc_lookahead=50 / rc=abr / mbtree=1 / bitrate=3500 / ratetol=1.0 / qcomp=0.60 / qpmin=0 / qpmax=69 / qpstep=4 / vbv_maxrate=62500 / vbv_bufsize=78125 / nal_hrd=none / filler=0 / ip_ratio=1.40 / aq=1:1.00
    Default                     : Yes
    Forced                      : No
    Color range                 : Limited
    Color primaries             : BT.709
    Transfer characteristics    : BT.709
    Matrix coefficients         : BT.709

    Audio #1
    ID                          : 2
    Format                      : AC-3
    Format/Info                 : Audio Coding 3
    Commercial name             : Dolby Digital
    Codec ID                    : A_AC3
    Duration                    : 1 h 38 min
    Bit rate mode               : Constant
    Bit rate                    : 256 kb/s
    Channel(s)                  : 2 channels
    Channel layout              : L R
    Sampling rate               : 48.0 kHz
    Frame rate                  : 31.250 FPS (1536 SPF)
    Bit depth                   : 16 bits
    Compression mode            : Lossy
    Delay relative to video     : -5 ms
    Stream size                 : 180 MiB (6%)
    Title                       : Español Latino [CinemaniaHDD]
    Language                    : Spanish
    Service kind                : Complete Main
    Default                     : Yes
    Forced                      : No

    Audio #2
    ID                          : 3
    Format                      : AC-3
    Format/Info                 : Audio Coding 3
    Commercial name             : Dolby Digital
    Codec ID                    : A_AC3
    Duration                    : 1 h 38 min
    Bit rate mode               : Constant
    Bit rate                    : 448 kb/s
    Channel(s)                  : 6 channels
    Channel layout              : L R C LFE Ls Rs
    Sampling rate               : 48.0 kHz
    Frame rate                  : 31.250 FPS (1536 SPF)
    Bit depth                   : 16 bits
    Compression mode            : Lossy
    Delay relative to video     : -5 ms
    Stream size                 : 315 MiB (11%)
    Title                       : Ingles [CinemaniaHDD]
    Language                    : English
    Service kind                : Complete Main
    Default                     : No
    Forced                      : No

    Text #1
    ID                          : 4
    Format                      : UTF-8
    Codec ID                    : S_TEXT/UTF8
    Codec ID/Info               : UTF-8 Plain Text
    Duration                    : 1 h 23 min
    Bit rate                    : 0 b/s
    Count of elements           : 12
    Stream size                 : 316 Bytes (0%)
    Title                       : Forzados-SRT [CinemaniaHDD]
    Language                    : Spanish
    Default                     : Yes
    Forced                      : No

    Text #2
    ID                          : 5
    Format                      : UTF-8
    Codec ID                    : S_TEXT/UTF8
    Codec ID/Info               : UTF-8 Plain Text
    Duration                    : 1 h 31 min
    Bit rate                    : 79 b/s
    Count of elements           : 1592
    Stream size                 : 53.4 KiB (0%)
    Title                       : Español-SRT [CinemaniaHDD]
    Language                    : Spanish
    Default                     : No
    Forced                      : No

    Text #3
    ID                          : 6
    Format                      : UTF-8
    Codec ID                    : S_TEXT/UTF8
    Codec ID/Info               : UTF-8 Plain Text
    Duration                    : 1 h 30 min
    Bit rate                    : 87 b/s
    Count of elements           : 1617
    Stream size                 : 58.0 KiB (0%)
    Title                       : Ingles-SRT [CinemaniaHDD]
    Language                    : Spanish
    Default                     : No
    Forced                      : No

    Menu
    00:00:00.000                : :00:00:00.000
    00:10:57.991                : :00:10:57.991
    00:17:11.989                : :00:17:11.989
    00:21:05.639                : :00:21:05.639
    00:25:40.122                : :00:25:40.122
    00:30:59.274                : :00:30:59.274
    00:38:24.052                : :00:38:24.052
    00:43:50.419                : :00:43:50.378
    00:52:06.874                : :00:52:06.874
    00:58:39.391                : :00:58:39.391
    01:04:37.165                : :01:04:37.165
    01:10:21.884                : :01:10:21.884
    01:21:22.753                : :01:21:22.753
    01:27:29.077                : :01:27:29.077
    01:32:28.918                : :01:32:28.835

  • Peso: 2.80 GiB

Sinopsis

Descargar Chuck: La historia verdadera de Rocky Balboa (2016) 1080p Latino. Drama inspirado en la biografía del boxeador Chuck Wepner, el hombre que inspiró el personaje de Rocky Balboa.

Audio Español Latino AC3 2.0 Amazon – Ingles AC3 5.1 Bluray

Ficha técnica

Video trailer de la película

Enlaces de descarga

Rip de Bluray

Descargar Chuck: La historia verdadera de Rocky Balboa (2016) 1080p Latino




Aportes de DPeliculasHDmega la pass es:dpeliculashdmega.org Aportes de CinemaniaHD la pass es:cinemaniahdd.com
Guardado en : Drama , HD 1080p

Películas relacionadas

descargar Chuck: La historia verdadera de Rocky Balboa (2016) 1080p Latino 1080p 1080p gratis, Chuck: La historia verdadera de Rocky Balboa (2016) 1080p Latino 1080p mega 1 link, Chuck: La historia verdadera de Rocky Balboa (2016) 1080p Latino 1080p pelicula completa, descargar Chuck: La historia verdadera de Rocky Balboa (2016) 1080p Latino 1080p gratis en mega.

Chuck: La historia verdadera de Rocky Balboa (2016) 1080p Latino pelicula full hd, Chuck: La historia verdadera de Rocky Balboa (2016) 1080p Latino mega latino, Chuck: La historia verdadera de Rocky Balboa (2016) 1080p Latino 4k latino, Chuck: La historia verdadera de Rocky Balboa (2016) 1080p Latino pelicula completa, Chuck: La historia verdadera de Rocky Balboa (2016) 1080p Latino descargar gratis, descargar Chuck: La historia verdadera de Rocky Balboa (2016) 1080p Latino pelicula latino, Chuck: La historia verdadera de Rocky Balboa (2016) 1080p Latino 1 link mega, Chuck: La historia verdadera de Rocky Balboa (2016) 1080p Latino 1 link google drive, Chuck: La historia verdadera de Rocky Balboa (2016) 1080p Latino hd 1080p latino.
Comentarios 0