×

¿Problemas para descargar con Mozilla, EDGE? Deshabilita la opción "Abrir vinculos en una pestaña nueva" tal como lo muestra ésta imagen.

Christmas Getaway (2017) AMZN WEB-DL 1080p Latino

225 vistas

Información de Christmas Getaway (2017) AMZN WEB-DL 1080p Latino

Datos de la película

  • Calidad: 1080p
  • Audio: Español Latino AC3 2.0 WEB-DL - Ingles AC3 2.0 WEB-DL
  • Subtitulos: Español Latino SRT
  • Resolución: 1920x1080
  • Formato: MKV
  • Codec: H.264
  • Encoder: cinemaniahdd
  • Mediainfo: Clic para Mostrar Datos Ver
  • Christmas Getaway (2017) AMZN WEB-DL 1080p Latino [CNMNHDD].mkv
    Format                      : Matroska
    Format version              : Version 4
    File size                   : 4.93 GiB
    Duration                    : 1 h 26 min
    Overall bit rate            : 8 117 kb/s
    Movie name                  : Christmas Getaway (2017) - CinemaniaHDD.Net
    Encoded date                : UTC 2021-11-01 23:12:23
    Writing application         : mkvmerge v59.0.0 ('Shining Star') 64-bit
    Writing library             : libebml v1.4.2 + libmatroska v1.6.4

    Video
    ID                          : 1
    Format                      : AVC
    Format/Info                 : Advanced Video Codec
    Format profile              : High@L4
    Format settings             : CABAC / 4 Ref Frames
    Format settings, CABAC      : Yes
    Format settings, Reference  : 4 frames
    Codec ID                    : V_MPEG4/ISO/AVC
    Duration                    : 1 h 26 min
    Bit rate mode               : Constant
    Bit rate                    : 7 667 kb/s
    Nominal bit rate            : 10 000 kb/s
    Width                       : 1 920 pixels
    Height                      : 1 080 pixels
    Display aspect ratio        : 16:9
    Frame rate mode             : Constant
    Frame rate                  : 23.976 (24000/1001) FPS
    Color space                 : YUV
    Chroma subsampling          : 4:2:0
    Bit depth                   : 8 bits
    Scan type                   : Progressive
    Bits/(Pixel*Frame)          : 0.154
    Stream size                 : 4.65 GiB (94%)
    Title                       : CinemaniaHDD
    Default                     : Yes
    Forced                      : No
    Color range                 : Limited
    Color primaries             : BT.709
    Transfer characteristics    : BT.709
    Matrix coefficients         : BT.709

    Audio #1
    ID                          : 2
    Format                      : E-AC-3
    Format/Info                 : Enhanced AC-3
    Commercial name             : Dolby Digital Plus
    Codec ID                    : A_EAC3
    Duration                    : 1 h 26 min
    Bit rate mode               : Constant
    Bit rate                    : 224 kb/s
    Channel(s)                  : 2 channels
    Channel layout              : L R
    Sampling rate               : 48.0 kHz
    Frame rate                  : 31.250 FPS (1536 SPF)
    Compression mode            : Lossy
    Stream size                 : 139 MiB (3%)
    Title                       : Español latino [CinemaniaHDD]
    Language                    : Spanish
    Service kind                : Complete Main
    Default                     : Yes
    Forced                      : No

    Audio #2
    ID                          : 3
    Format                      : E-AC-3
    Format/Info                 : Enhanced AC-3
    Commercial name             : Dolby Digital Plus
    Codec ID                    : A_EAC3
    Duration                    : 1 h 26 min
    Bit rate mode               : Constant
    Bit rate                    : 224 kb/s
    Channel(s)                  : 2 channels
    Channel layout              : L R
    Sampling rate               : 48.0 kHz
    Frame rate                  : 31.250 FPS (1536 SPF)
    Compression mode            : Lossy
    Stream size                 : 139 MiB (3%)
    Title                       : Inglés [CinemaniaHDD]
    Language                    : English
    Service kind                : Complete Main
    Default                     : No
    Forced                      : No

    Text
    ID                          : 4
    Format                      : UTF-8
    Codec ID                    : S_TEXT/UTF8
    Codec ID/Info               : UTF-8 Plain Text
    Duration                    : 1 h 24 min
    Bit rate                    : 76 b/s
    Count of elements           : 1252
    Stream size                 : 47.4 KiB (0%)
    Title                       : Español latino [CinemaniaHDD]
    Language                    : Spanish
    Default                     : No
    Forced                      : No

     

  • Peso: 4.93 GiB

Sinopsis

Una periodista en busca inspiración para redactar un artículo sobre la navidad alquila una cabaña en Pine Grove. A su llegada descubre que está ocupada por un padre y su hija que no están dispuestos a cederla. Como no queda ninguna más disponible, deciden compartirla muy a su pesar.

Ficha técnica

Video trailer de la película

Enlaces de descarga

Rip de Bluray

Descargar Christmas Getaway (2017) AMZN WEB-DL 1080p Latino




Aportes de DPeliculasHDmega la pass es:dpeliculashdmega.org Aportes de CinemaniaHD la pass es:cinemaniahdd.com
Guardado en : Película de TV , Romance

Películas relacionadas

  • Groundhog Day (1993) REMUX 4K HDR Latino – CMHDD

    Groundhog Day (1993) REMUX 4K HDR Latino – CMHDD

    1993
    Groundhog Day (1993) REMUX 4K HDR Latino – CMHDD

    1h 41m 1993

    Phil, hombre del tiempo de una cadena de televisión, es enviado un año más a Punxstawnwey, a cubrir...

    Director: Sam Hoffman

    Género: Comedia

    Actores: Willie Garson

  • La Princesa Prometida (1987) REMUX 1080p Latino

    La Princesa Prometida (1987) REMUX 1080p Latino

    1987
    La Princesa Prometida (1987) REMUX 1080p Latino

    1h 38m 1987

    Descargar La Princesa Prometida (1987) REMUX 1080p Latino. Después de buscar fortuna durante cinco años,...

    Director: Rob Reiner

    Género: Aventura

    Actores: Willy DeVille

  • La adorable revoltosa (1938) REMUX 1080p Latino

    La adorable revoltosa (1938) REMUX 1080p Latino

    1938
    La adorable revoltosa (1938) REMUX 1080p Latino

    1h 42m 1938

    Descargar La adorable revoltosa (1938) REMUX 1080p Latino. David Huxley (Cary Grant) es un paleontólogo...

    Director: Howard Hawks

    Género: Comedia

    Actores: William Benedict

  • Ophelia (2019) PLACEBO Full HD 1080p Latino

    Ophelia (2019) PLACEBO Full HD 1080p Latino

    2019
    Ophelia (2019) PLACEBO Full HD 1080p Latino

    1h 54m 2019

    Descargar Ophelia (2019) PLACEBO Full HD 1080p Latino. Ophelia, es una joven adolescente e impetuosa...

    Director: Mark Taylor

    Género: FULL 1080p Plateadas

    Actores: Veronika Strapková

  • Ophelia (2019) REMUX 1080p Latino

    Ophelia (2019) REMUX 1080p Latino

    2019
    Ophelia (2019) REMUX 1080p Latino

    1h 54m 2019

    Descargar Ophelia (2019) REMUX 1080p Latino. Ophelia, es una joven adolescente e impetuosa que reside...

    Director: Mark Taylor

    Género: Historia

    Actores: Veronika Strapková

descargar Christmas Getaway (2017) AMZN WEB-DL 1080p Latino 1080p 1080p gratis, Christmas Getaway (2017) AMZN WEB-DL 1080p Latino 1080p mega 1 link, Christmas Getaway (2017) AMZN WEB-DL 1080p Latino 1080p pelicula completa, descargar Christmas Getaway (2017) AMZN WEB-DL 1080p Latino 1080p gratis en mega.

Christmas Getaway (2017) AMZN WEB-DL 1080p Latino pelicula full hd, Christmas Getaway (2017) AMZN WEB-DL 1080p Latino mega latino, Christmas Getaway (2017) AMZN WEB-DL 1080p Latino 4k latino, Christmas Getaway (2017) AMZN WEB-DL 1080p Latino pelicula completa, Christmas Getaway (2017) AMZN WEB-DL 1080p Latino descargar gratis, descargar Christmas Getaway (2017) AMZN WEB-DL 1080p Latino pelicula latino, Christmas Getaway (2017) AMZN WEB-DL 1080p Latino 1 link mega, Christmas Getaway (2017) AMZN WEB-DL 1080p Latino 1 link google drive, Christmas Getaway (2017) AMZN WEB-DL 1080p Latino hd 1080p latino.
Comentarios 0