×

¿Problemas para descargar con Mozilla, EDGE? Deshabilita la opción "Abrir vinculos en una pestaña nueva" tal como lo muestra ésta imagen.

Christmas at the Plaza (2019) AMZN WEB-DL 1080p Latino

384 vistas

Información de Christmas at the Plaza (2019) AMZN WEB-DL 1080p Latino

Datos de la película

  • Calidad:
  • Audio: Español Latino AC3 2.0 WEB-DL - Ingles AC3 2.0 WEB-DL
  • Subtitulos: Español Latino SRT
  • Resolución: 1920x1080
  • Formato: MKV
  • Codec: H.264
  • Encoder: cinemaniahdd
  • Mediainfo: Clic para Mostrar Datos Ver
  • Christmas at the Plaza (2019) AMZN WEB-DL 1080p Latino [CNMNHDD].mkv
    Format                      : Matroska
    Format version              : Version 4
    File size                   : 5.26 GiB
    Duration                    : 1 h 26 min
    Overall bit rate mode       : Constant
    Overall bit rate            : 8 704 kb/s
    Movie name                  : Christmas at the Plaza (2019) - CinemaniaHDD.Net
    Encoded date                : UTC 2021-11-02 16:11:48
    Writing application         : mkvmerge v46.0.0 ('No Deeper Escape') 64-bit
    Writing library             : libebml v1.3.10 + libmatroska v1.5.2

    Video
    ID                          : 1
    Format                      : AVC
    Format/Info                 : Advanced Video Codec
    Format profile              : High@L4
    Format settings             : CABAC / 4 Ref Frames
    Format settings, CABAC      : Yes
    Format settings, Reference  : 4 frames
    Codec ID                    : V_MPEG4/ISO/AVC
    Duration                    : 1 h 26 min
    Bit rate mode               : Constant
    Bit rate                    : 8 254 kb/s
    Nominal bit rate            : 10 000 kb/s
    Width                       : 1 920 pixels
    Height                      : 1 080 pixels
    Display aspect ratio        : 16:9
    Frame rate mode             : Constant
    Frame rate                  : 23.976 (24000/1001) FPS
    Color space                 : YUV
    Chroma subsampling          : 4:2:0
    Bit depth                   : 8 bits
    Scan type                   : Progressive
    Bits/(Pixel*Frame)          : 0.166
    Stream size                 : 4.99 GiB (95%)
    Title                       : CinemaniaHDD
    Language                    : English
    Default                     : Yes
    Forced                      : No
    Color range                 : Limited
    Color primaries             : BT.709
    Transfer characteristics    : BT.709
    Matrix coefficients         : BT.709

    Audio #1
    ID                          : 2
    Format                      : E-AC-3
    Format/Info                 : Enhanced AC-3
    Commercial name             : Dolby Digital Plus
    Codec ID                    : A_EAC3
    Duration                    : 1 h 26 min
    Bit rate mode               : Constant
    Bit rate                    : 224 kb/s
    Channel(s)                  : 2 channels
    Channel layout              : L R
    Sampling rate               : 48.0 kHz
    Frame rate                  : 31.250 FPS (1536 SPF)
    Compression mode            : Lossy
    Stream size                 : 139 MiB (3%)
    Title                       : Español latino [CinemaniaHDD]
    Language                    : Spanish
    Service kind                : Complete Main
    Default                     : Yes
    Forced                      : No

    Audio #2
    ID                          : 3
    Format                      : E-AC-3
    Format/Info                 : Enhanced AC-3
    Commercial name             : Dolby Digital Plus
    Codec ID                    : A_EAC3
    Duration                    : 1 h 26 min
    Bit rate mode               : Constant
    Bit rate                    : 224 kb/s
    Channel(s)                  : 2 channels
    Channel layout              : L R
    Sampling rate               : 48.0 kHz
    Frame rate                  : 31.250 FPS (1536 SPF)
    Compression mode            : Lossy
    Stream size                 : 139 MiB (3%)
    Title                       : Inglés [CinemaniaHDD]
    Language                    : English
    Service kind                : Complete Main
    Default                     : No
    Forced                      : No

     

  • Peso: 5.26 GiB

Sinopsis

Con la llegada de la Navidad a Nueva York, Jessica, una historiadora de archivo inmersa en una relación romántica en declive, es contratada para crear una exposición en honor a la historia de la Navidad en El Plaza Hotel. Allí conoce a Nick, el guapo decorador que tiene el encargo de decorar el emblemático lugar.

Ficha técnica

Video trailer de la película

Enlaces de descarga

Rip de Bluray

Descargar Christmas at the Plaza (2019) AMZN WEB-DL 1080p Latino




Aportes de DPeliculasHDmega la pass es:dpeliculashdmega.org Aportes de CinemaniaHD la pass es:cinemaniahdd.com Aportes recientes:cinemaniahdd.net
Guardado en : Película de TV , Romance

Películas relacionadas

  • Players (2024) NF WEB-DL 1080p Latino

    Players (2024) NF WEB-DL 1080p Latino

    2024
    Players (2024) NF WEB-DL 1080p Latino

    1h 45m 2024

    Descargar Players (2024) NF WEB-DL 1080p Latino. Una periodista deportiva neoyorquina con un ingenioso...

    Director: Trish Sie

    Género: Comedia

    Actores: Veraalba Santa

  • Llego a mí (2023) AMZN WEB-DL 1080p Latino

    Llego a mí (2023) AMZN WEB-DL 1080p Latino

    2023
    Llego a mí (2023) AMZN WEB-DL 1080p Latino

    1h 42m 2023

    Descargar Llego a mí (2023) AMZN WEB-DL 1080p Latino. El compositor Steven Lauddem sufre un bloqueo...

    Director: Rebecca Miller

    Género: Comedia

    Actores: Tommy Buck

  • Viviendo mi película (2024) AMZN WEB-DL 1080p Latino

    Viviendo mi película (2024) AMZN WEB-DL 1080p Latino

    2024
    Viviendo mi película (2024) AMZN WEB-DL 1080p Latino

    0h 0m 2024

    Descargar Viviendo mi película (2024) AMZN WEB-DL 1080p Latino. Fani, una adolescente como tantas otras,...

    Director: Pedro Antônio Paes

    Género: Comedia

    Actores: Xande Valois

descargar Christmas at the Plaza (2019) AMZN WEB-DL 1080p Latino 1080p gratis, Christmas at the Plaza (2019) AMZN WEB-DL 1080p Latino mega 1 link, Christmas at the Plaza (2019) AMZN WEB-DL 1080p Latino pelicula completa, descargar Christmas at the Plaza (2019) AMZN WEB-DL 1080p Latino gratis en mega.

Christmas at the Plaza (2019) AMZN WEB-DL 1080p Latino pelicula full hd, Christmas at the Plaza (2019) AMZN WEB-DL 1080p Latino mega latino, Christmas at the Plaza (2019) AMZN WEB-DL 1080p Latino 4k latino, Christmas at the Plaza (2019) AMZN WEB-DL 1080p Latino pelicula completa, Christmas at the Plaza (2019) AMZN WEB-DL 1080p Latino descargar gratis, descargar Christmas at the Plaza (2019) AMZN WEB-DL 1080p Latino pelicula latino, Christmas at the Plaza (2019) AMZN WEB-DL 1080p Latino 1 link mega, Christmas at the Plaza (2019) AMZN WEB-DL 1080p Latino 1 link google drive, Christmas at the Plaza (2019) AMZN WEB-DL 1080p Latino hd 1080p latino.
Comentarios 0