Chop Chop (2020) AMZN WEB-DL 1080p Latino

40 vistas
1 estrella2 estrellas3 estrellas4 estrellas5 estrellas (1 votos, promedio: 5,00 de 5)
Cargando...

Información de Chop Chop (2020) AMZN WEB-DL 1080p Latino

Datos de la película

  • Calidad: WEBDL
  • Audio: Español Latino AC3 2.0 WEB-DL - Ingles AC3 5.1 WEB-DL
  • Subtitulos: Español Latino SRT- FORZADOS SRT
  • Resolución: 1920x1040
  • Formato: MKV
  • Codec: H.264
  • Encoder: cinemaniahdd
  • Mediainfo: Clic para Mostrar Datos Ver
  • Chop Chop (2020) AMZN WEB-DL 1080p Latino[CNMNHDD].mkv
    Format                      : Matroska
    Format version              : Version 4
    File size                   : 5.40 GiB
    Duration                    : 1 h 21 min
    Overall bit rate            : 9 510 kb/s
    Movie name                  : Chop Chop (2020) - CinemaniaHDD.Net
    Encoded date                : UTC 2021-04-22 00:51:39
    Writing application         : mkvmerge v51.0.0 ('I Wish') 64-bit
    Writing library             : libebml v1.4.0 + libmatroska v1.6.2

    Video
    ID                          : 1
    Format                      : AVC
    Format/Info                 : Advanced Video Codec
    Format profile              : High@L4
    Format settings             : CABAC / 4 Ref Frames
    Format settings, CABAC      : Yes
    Format settings, Reference  : 4 frames
    Codec ID                    : V_MPEG4/ISO/AVC
    Duration                    : 1 h 21 min
    Bit rate mode               : Constant
    Bit rate                    : 8 612 kb/s
    Nominal bit rate            : 10 000 kb/s
    Width                       : 1 920 pixels
    Height                      : 1 040 pixels
    Display aspect ratio        : 1.85:1
    Frame rate mode             : Constant
    Frame rate                  : 23.976 (24000/1001) FPS
    Color space                 : YUV
    Chroma subsampling          : 4:2:0
    Bit depth                   : 8 bits
    Scan type                   : Progressive
    Bits/(Pixel*Frame)          : 0.180
    Stream size                 : 4.89 GiB (91%)
    Title                       : CinemaniaHDD
    Default                     : Yes
    Forced                      : No
    Color range                 : Limited
    Color primaries             : BT.709
    Transfer characteristics    : BT.709
    Matrix coefficients         : BT.709

    Audio #1
    ID                          : 2
    Format                      : AC-3
    Format/Info                 : Audio Coding 3
    Commercial name             : Dolby Digital
    Codec ID                    : A_AC3
    Duration                    : 1 h 21 min
    Bit rate mode               : Constant
    Bit rate                    : 256 kb/s
    Channel(s)                  : 2 channels
    Channel layout              : L R
    Sampling rate               : 48.0 kHz
    Frame rate                  : 31.250 FPS (1536 SPF)
    Compression mode            : Lossy
    Stream size                 : 149 MiB (3%)
    Title                       : Español latino [CinemaniaHDD]
    Language                    : Spanish
    Service kind                : Complete Main
    Default                     : Yes
    Forced                      : No

    Audio #2
    ID                          : 3
    Format                      : E-AC-3
    Format/Info                 : Enhanced AC-3
    Commercial name             : Dolby Digital Plus
    Codec ID                    : A_EAC3
    Duration                    : 1 h 21 min
    Bit rate mode               : Constant
    Bit rate                    : 640 kb/s
    Channel(s)                  : 6 channels
    Channel layout              : L R C LFE Ls Rs
    Sampling rate               : 48.0 kHz
    Frame rate                  : 31.250 FPS (1536 SPF)
    Compression mode            : Lossy
    Stream size                 : 372 MiB (7%)
    Title                       : Inglés [CinemaniaHDD]
    Language                    : English
    Service kind                : Complete Main
    Default                     : No
    Forced                      : No

    Text #1
    ID                          : 4
    Format                      : UTF-8
    Codec ID                    : S_TEXT/UTF8
    Codec ID/Info               : UTF-8 Plain Text
    Duration                    : 1 h 15 min
    Bit rate                    : 0 b/s
    Count of elements           : 11
    Stream size                 : 196 Bytes (0%)
    Title                       : Forzados [CinemaniaHDD]
    Language                    : Spanish
    Default                     : Yes
    Forced                      : Yes

    Text #2
    ID                          : 5
    Format                      : UTF-8
    Codec ID                    : S_TEXT/UTF8
    Codec ID/Info               : UTF-8 Plain Text
    Duration                    : 1 h 19 min
    Bit rate                    : 16 b/s
    Count of elements           : 487
    Stream size                 : 9.83 KiB (0%)
    Title                       : Español latino [CinemaniaHDD]
    Language                    : Spanish
    Default                     : No
    Forced                      : No

    Text #3
    ID                          : 6
    Format                      : UTF-8
    Codec ID                    : S_TEXT/UTF8
    Codec ID/Info               : UTF-8 Plain Text
    Duration                    : 1 h 18 min
    Bit rate                    : 25 b/s
    Count of elements           : 757
    Stream size                 : 14.9 KiB (0%)
    Title                       : Inglés [CC] [CinemaniaHDD]
    Language                    : English
    Default                     : No
    Forced                      : No

     

  • Peso: 5.40 GiB

Sinopsis

Una pareja se involucra con una banda de criminales endurecidos después de sobrevivir a un ataque de un psicópata asesino.

Ficha técnica

  • Titulo original: Chop Chop
  • Fecha de lanzamiento: 20-10-2020
  • Director: Rony Patel
  • Género: Crimen, Suspenso, Terror
  • Puntuación: 5.0 1 votos
  • Duración:
    1h 21m

Video trailer de la película

Enlaces de descarga

Rip de Bluray

Descargar Chop Chop (2020) AMZN WEB-DL 1080p Latino




Aportes de DPeliculasHDmega la pass es:dpeliculashdmega.org Aportes de CinemaniaHD la pass es:cinemaniahdd.com
Guardado en : Crimen , Suspenso , Terror

Películas relacionadas

  • Ferry (2021) NF WEB-DL 1080p Latino

    Ferry (2021) NF WEB-DL 1080p Latino

    2021
    Ferry (2021) NF WEB-DL 1080p Latino

    5.0 1h 46m 2021

    Antes de levantar su imperio de drogas, Ferry Bouman vuelve a casa con una misión de venganza que pone...

    Director: Cecilia Verheyden

    Género: Acción

    Actores: Yannick van de Velde

  • I Am All Girls (2021) NF WEB-DL 1080p Latino

    I Am All Girls (2021) NF WEB-DL 1080p Latino

    2021
    I Am All Girls (2021) NF WEB-DL 1080p Latino

    5.0 1h 47m 2021

    Una detective implacable encuentra que tiene intereses en común con alguien que asesina sistemáticamente...

    Director: Donovan Marsh

    Género: Crimen

    Actores: Masasa Mbangeni

Chop Chop (2020) AMZN WEB-DL 1080p Latino pelicula full hd, Chop Chop (2020) AMZN WEB-DL 1080p Latino mega latino, Chop Chop (2020) AMZN WEB-DL 1080p Latino 4k latino, Chop Chop (2020) AMZN WEB-DL 1080p Latino pelicula completa, Chop Chop (2020) AMZN WEB-DL 1080p Latino descargar gratis, descargar Chop Chop (2020) AMZN WEB-DL 1080p Latino pelicula latino, Chop Chop (2020) AMZN WEB-DL 1080p Latino 1 link mega, Chop Chop (2020) AMZN WEB-DL 1080p Latino 1 link google drive, Chop Chop (2020) AMZN WEB-DL 1080p Latino hd 1080p latino.
Comentarios 0