×

¿Problemas para descargar con Mozilla, EDGE? Deshabilita la opción "Abrir vinculos en una pestaña nueva" tal como lo muestra ésta imagen.

Chilling Adventures of Sabrina (2019) Temporada 01/Parte 02 NF Web-DL 1080p Latino

2.282 vistas

Información de Chilling Adventures of Sabrina (2019) Temporada 01/Parte 02 NF Web-DL 1080p Latino

Datos de la película

  • Calidad: WEBDL
  • Audio: Español Latino E-AC3 5.1 Netflix - Ingles E-AC3 5.1 Netflix
  • Subtitulos: Español Latino SRT - Ingles SRT
  • Resolución: 1920x1080p
  • Formato: MKV
  • Codec: H.264
  • Encoder: CinefiloCool
  • Mediainfo: Clic para Mostrar Datos Ver
  • Ch.A.of.Sabrina PT02E01 (2019) NF Web-DL 1080p Latino.mkv
    Format                      : Matroska
    Format version              : Version 4
    File size                   : 1.70 GiB
    Duration                    : 55 min 22 s
    Overall bit rate mode       : Variable
    Overall bit rate            : 4 398 kb/s
    Movie name                  : CinemaniaHDD.Net
    Encoded date                : UTC 2020-12-23 09:35:36
    Writing application         : mkvmerge v51.0.0 ('I Wish') 64-bit
    Writing library             : libebml v1.4.0 + libmatroska v1.6.2
    Attachments                 : CINEMANIAHD.png

    Video
    ID                          : 1
    Format                      : AVC
    Format/Info                 : Advanced Video Codec
    Format profile              : Main@L4
    Format settings             : CABAC / 3 Ref Frames
    Format settings, CABAC      : Yes
    Format settings, Reference  : 3 frames
    Codec ID                    : V_MPEG4/ISO/AVC
    Duration                    : 55 min 11 s
    Bit rate mode               : Variable
    Bit rate                    : 3 160 kb/s
    Maximum bit rate            : 4 740 kb/s
    Width                       : 1 920 pixels
    Height                      : 1 080 pixels
    Display aspect ratio        : 16:9
    Frame rate mode             : Constant
    Frame rate                  : 23.976 (24000/1001) FPS
    Color space                 : YUV
    Chroma subsampling          : 4:2:0
    Bit depth                   : 8 bits
    Scan type                   : Progressive
    Bits/(Pixel*Frame)          : 0.064
    Stream size                 : 1.21 GiB (71%)
    Title                       : WEB HD1080p [CinemaniaHDD]
    Writing library             : x264 core 148 r2715 7e75228
    Encoding settings           : cabac=1 / ref=3 / deblock=1:0:0 / analyse=0x1:0x111 / me=umh / subme=10 / psy=1 / psy_rd=1.00:0.00 / mixed_ref=1 / me_range=24 / chroma_me=1 / trellis=2 / 8x8dct=0 / cqm=0 / deadzone=21,11 / fast_pskip=1 / chroma_qp_offset=-2 / threads=8 / lookahead_threads=1 / sliced_threads=0 / nr=0 / decimate=1 / interlaced=0 / bluray_compat=0 / stitchable=1 / constrained_intra=0 / bframes=2 / b_pyramid=0 / b_adapt=2 / b_bias=0 / direct=3 / weightb=1 / open_gop=0 / weightp=2 / keyint=48 / keyint_min=25 / scenecut=0 / intra_refresh=0 / rc_lookahead=48 / rc=2pass / mbtree=1 / bitrate=3160 / ratetol=1.0 / qcomp=0.50 / qpmin=6 / qpmax=51 / qpstep=4 / cplxblur=20.0 / qblur=0.5 / vbv_maxrate=4740 / vbv_bufsize=6320 / nal_hrd=vbr / filler=0 / ip_ratio=1.40 / aq=1:1.00
    Language                    : English
    Default                     : Yes
    Forced                      : No

    Audio #1
    ID                          : 2
    Format                      : E-AC-3
    Format/Info                 : Enhanced AC-3
    Commercial name             : Dolby Digital Plus
    Codec ID                    : A_EAC3
    Duration                    : 55 min 22 s
    Bit rate mode               : Constant
    Bit rate                    : 640 kb/s
    Channel(s)                  : 6 channels
    Channel layout              : L R C LFE Ls Rs
    Sampling rate               : 48.0 kHz
    Frame rate                  : 31.250 FPS (1536 SPF)
    Compression mode            : Lossy
    Stream size                 : 253 MiB (15%)
    Title                       : Español Latino [CinemaniaHDD]
    Language                    : Spanish
    Service kind                : Complete Main
    Default                     : Yes
    Forced                      : No

    Audio #2
    ID                          : 3
    Format                      : E-AC-3
    Format/Info                 : Enhanced AC-3
    Commercial name             : Dolby Digital Plus
    Codec ID                    : A_EAC3
    Duration                    : 55 min 12 s
    Bit rate mode               : Constant
    Bit rate                    : 640 kb/s
    Channel(s)                  : 6 channels
    Channel layout              : L R C LFE Ls Rs
    Sampling rate               : 48.0 kHz
    Frame rate                  : 31.250 FPS (1536 SPF)
    Compression mode            : Lossy
    Stream size                 : 253 MiB (15%)
    Title                       : Ingles [CinemaniaHDD]
    Language                    : English
    Service kind                : Complete Main
    Default                     : No
    Forced                      : No

    Text #1
    ID                          : 4
    Format                      : UTF-8
    Codec ID                    : S_TEXT/UTF8
    Codec ID/Info               : UTF-8 Plain Text
    Duration                    : 54 min 16 s
    Bit rate                    : 0 b/s
    Count of elements           : 2
    Stream size                 : 59.0 Bytes (0%)
    Title                       : Forzados-SRT [CinemaniaHDD]
    Language                    : Spanish
    Default                     : Yes
    Forced                      : No

    Text #2
    ID                          : 5
    Format                      : UTF-8
    Codec ID                    : S_TEXT/UTF8
    Codec ID/Info               : UTF-8 Plain Text
    Duration                    : 54 min 16 s
    Bit rate                    : 63 b/s
    Count of elements           : 723
    Stream size                 : 25.3 KiB (0%)
    Title                       : Español-SRT [CinemaniaHDD]
    Language                    : Spanish
    Default                     : No
    Forced                      : No

    Text #3
    ID                          : 6
    Format                      : UTF-8
    Codec ID                    : S_TEXT/UTF8
    Codec ID/Info               : UTF-8 Plain Text
    Duration                    : 51 min 58 s
    Bit rate                    : 83 b/s
    Count of elements           : 930
    Stream size                 : 31.6 KiB (0%)
    Title                       : Ingles-SRT [CinemaniaHDD]
    Language                    : English
    Default                     : No
    Forced                      : No

  • Peso: 1.4 - 1.9 GiB Aprox. C/U | 14.0 GiB Total.

Sinopsis

Descargar Chilling Adventures of Sabrina (2019) Temporada 01 Parte 02 NF Web-DL 1080p Latino. El mundo está lleno de peligros y Sabrina está haciendo de las suyas. Después de firmar en el Libro de la Bestia, lucha por mantener el equilibrio entre su lugar en el mundo de los mortales y su nuevo lado oscuro. En la Parte 2, la esperan nuevos retos como decidirse entre Harvey Kinkle, un mortal de sobra conocido, y Nicolas Scratch, un brujo super sexi. Puede que tenga cierto trato con el Señor Oscuro, pero eso no significa que no esté dispuesta a dar guerra.

Ficha técnica

Video trailer de la película

Enlaces de descarga

Rip de Bluray

Descargar Chilling Adventures of Sabrina (2019) Temporada 01/Parte 02 NF Web-DL 1080p Latino




Aportes de DPeliculasHDmega la pass es:dpeliculashdmega.org Aportes de CinemaniaHD la pass es:cinemaniahdd.com

Películas relacionadas

  • Jaula Mental (2022) HD 1080p Latino

    Jaula Mental (2022) HD 1080p Latino

    2022
    Jaula Mental (2022) HD 1080p Latino

    1h 47m 2022

    Descargar Jaula Mental (2022) HD 1080p Latino. Cuando un asesino que imita otros crímenes comienza a...

    Director: Mauro Borrelli

    Género: Crimen

    Actores: Victoria Fox

  • Jaula Mental (2022) PLACEBO Full HD 1080p Latino

    Jaula Mental (2022) PLACEBO Full HD 1080p Latino

    2022
    Jaula Mental (2022) PLACEBO Full HD 1080p Latino

    1h 47m 2022

    Descargar Jaula Mental (2022) PLACEBO Full HD 1080p Latino. Cuando un asesino que imita otros crímenes...

    Director: Mauro Borrelli

    Género: Crimen

    Actores: Victoria Fox

  • Jaula Mental (2022) REMUX 1080p Latino

    Jaula Mental (2022) REMUX 1080p Latino

    2022
    Jaula Mental (2022) REMUX 1080p Latino

    1h 47m 2022

    Descargar Jaula Mental (2022) REMUX 1080p Latino. Cuando un asesino que imita otros crímenes comienza...

    Director: Mauro Borrelli

    Género: Crimen

    Actores: Victoria Fox

  • Transfusion (2023) HD 1080p Latino

    Transfusion (2023) HD 1080p Latino

    2023
    Transfusion (2023) HD 1080p Latino

    1h 45m 2023

    Descargar Transfusion (2023) HD 1080p Latino. Un antiguo agente de las Fuerzas Especiales se ve empujado...

    Director: Matt Nable

    Género: Crimen

    Actores: Trystan Go

  • Transfusion (2023) PLACEBO Full HD 1080p Latino

    Transfusion (2023) PLACEBO Full HD 1080p Latino

    2023
    Transfusion (2023) PLACEBO Full HD 1080p Latino

    1h 45m 2023

    Descargar Transfusion (2023) PLACEBO Full HD 1080p Latino. Un antiguo agente de las Fuerzas Especiales...

    Director: Matt Nable

    Género: Crimen

    Actores: Trystan Go

descargar Chilling Adventures of Sabrina (2019) Temporada 01/Parte 02 NF Web-DL 1080p Latino WEBDL 1080p gratis, Chilling Adventures of Sabrina (2019) Temporada 01/Parte 02 NF Web-DL 1080p Latino WEBDL mega 1 link, Chilling Adventures of Sabrina (2019) Temporada 01/Parte 02 NF Web-DL 1080p Latino WEBDL serie completa, descargar Chilling Adventures of Sabrina (2019) Temporada 01/Parte 02 NF Web-DL 1080p Latino WEBDL gratis en mega.

Chilling Adventures of Sabrina (2019) Temporada 01/Parte 02 NF Web-DL 1080p Latino pelicula full hd, Chilling Adventures of Sabrina (2019) Temporada 01/Parte 02 NF Web-DL 1080p Latino mega latino, Chilling Adventures of Sabrina (2019) Temporada 01/Parte 02 NF Web-DL 1080p Latino 4k latino, Chilling Adventures of Sabrina (2019) Temporada 01/Parte 02 NF Web-DL 1080p Latino pelicula completa, Chilling Adventures of Sabrina (2019) Temporada 01/Parte 02 NF Web-DL 1080p Latino descargar gratis, descargar Chilling Adventures of Sabrina (2019) Temporada 01/Parte 02 NF Web-DL 1080p Latino pelicula latino, Chilling Adventures of Sabrina (2019) Temporada 01/Parte 02 NF Web-DL 1080p Latino 1 link mega, Chilling Adventures of Sabrina (2019) Temporada 01/Parte 02 NF Web-DL 1080p Latino 1 link google drive, Chilling Adventures of Sabrina (2019) Temporada 01/Parte 02 NF Web-DL 1080p Latino hd 1080p latino.
Comentarios 0