×

¿Problemas para descargar con Mozilla, EDGE? Deshabilita la opción "Abrir vinculos en una pestaña nueva" tal como lo muestra ésta imagen.

Chilling Adventures of Sabrina (2018) Temporada 01/Parte 01 NF WEBRip 4K UHD HDR Latino

333 vistas

Información de Chilling Adventures of Sabrina (2018) Temporada 01/Parte 01 NF WEBRip 4K UHD HDR Latino

Datos de la película

  • Calidad: WEBDL
  • Audio: Español Latino E-AC3 5.1 Netflix - Ingles E-AC3 5.1 Netflix
  • Subtitulos: Español Latino SRT - Ingles SRT
  • Resolución: 3840x1744p
  • Formato: MKV
  • Codec: HEVC
  • Encoder: CinefiloCool
  • Mediainfo: Clic para Mostrar Datos Ver
  • Ch.A.of.Sabrina PT01E01 (2018) NF WEB UHD HDR Latino.mkv
    Format                      : Matroska
    Format version              : Version 4
    File size                   : 10.2 GiB
    Duration                    : 1 h 1 min
    Overall bit rate            : 23.7 Mb/s
    Movie name                  : CinemaniaHDD.Net
    Encoded date                : UTC 2020-12-24 20:03:41
    Writing application         : mkvmerge v51.0.0 ('I Wish') 64-bit
    Writing library             : libebml v1.4.0 + libmatroska v1.6.2
    Attachments                 : CINEMANIAHD.png

    Video
    ID                          : 1
    Format                      : HEVC
    Format/Info                 : High Efficiency Video Coding
    Format profile              : Main 10@L5.1@High
    HDR format                  : SMPTE ST 2086, HDR10 compatible
    Codec ID                    : V_MPEGH/ISO/HEVC
    Duration                    : 1 h 1 min
    Bit rate                    : 22.6 Mb/s
    Width                       : 3 840 pixels
    Height                      : 1 744 pixels
    Display aspect ratio        : 2.2:1
    Frame rate mode             : Constant
    Frame rate                  : 23.976 (24000/1001) FPS
    Color space                 : YUV
    Chroma subsampling          : 4:2:0 (Type 2)
    Bit depth                   : 10 bits
    Bits/(Pixel*Frame)          : 0.141
    Stream size                 : 9.66 GiB (95%)
    Title                       : Web 2160p HDR [CinemaniaHDD]
    Writing library             : x265 2.8+68-fa57fa584898:[Linux][GCC 7.3.0][64 bit] 10bit
    Encoding settings           : cpuid=1111039 / frame-threads=5 / wpp / no-pmode / no-pme / no-psnr / no-ssim / log-level=2 / input-csp=1 / input-res=3840x1744 / interlace=0 / total-frames=0 / level-idc=51 / high-tier=1 / uhd-bd=0 / ref=4 / no-allow-non-conformance / repeat-headers / annexb / no-aud / no-hrd / info / hash=0 / no-temporal-layers / open-gop / min-keyint=23 / keyint=250 / gop-lookahead=0 / bframes=11 / b-adapt=2 / b-pyramid / bframe-bias=0 / rc-lookahead=25 / lookahead-slices=4 / scenecut=40 / radl=0 / no-intra-refresh / ctu=64 / min-cu-size=8 / rect / no-amp / max-tu-size=32 / tu-inter-depth=1 / tu-intra-depth=1 / limit-tu=0 / rdoq-level=2 / dynamic-rd=0.00 / no-ssim-rd / signhide / no-tskip / nr-intra=0 / nr-inter=0 / no-constrained-intra / strong-intra-smoothing / max-merge=3 / limit-refs=3 / limit-modes / me=2 / subme=6 / merange=57 / temporal-mvp / weightp / no-weightb / no-analyze-src-pics / deblock=-3:-3 / no-sao / no-sao-non-deblock / rd=4 / no-early-skip / no-rskip / no-fast-intra / no-tskip-fast / no-cu-lossless / no-b-intra / no-splitrd-skip / rdpenalty=0 / psy-rd=4.00 / psy-rdoq=10.00 / no-rd-refine / no-lossless / cbqpoffs=0 / crqpoffs=0 / rc=crf / crf=19.0 / qcomp=0.60 / qpstep=1 / stats-write=0 / stats-read=0 / vbv-maxrate=160000 / vbv-bufsize=160000 / vbv-init=0.9 / crf-max=0.0 / crf-min=0.0 / ipratio=1.25 / pbratio=1.20 / aq-mode=3 / aq-strength=0.65 / no-cutree / zone-count=0 / no-strict-cbr / qg-size=32 / rc-grain / qpmax=69 / qpmin=0 / const-vbv / sar=1 / overscan=0 / videoformat=5 / range=0 / colorprim=9 / transfer=16 / colormatrix=9 / chromaloc=1 / chromaloc-top=2 / chromaloc-bottom=2 / display-window=0 / master-display=G(13250,34500)B(7500,3000)R(34000,16000)WP(15635,16450)L(10000000,20) / max-cll=1193,403 / min-luma=0 / max-luma=1023 / log2-max-poc-lsb=8 / vui-timing-info / vui-hrd-info / slices=1 / no-opt-qp-pps / no-opt-ref-list-length-pps / no-multi-pass-opt-rps / scenecut-bias=0.05 / no-opt-cu-delta-qp / no-aq-motion / hdr / hdr-opt / no-dhdr10-opt / no-idr-recovery-sei / analysis-reuse-level=5 / scale-factor=0 / refine-intra=0 / refine-inter=0 / refine-mv=0 / no-limit-sao / ctu-info=0 / no-lowpass-dct / refine-mv-type=0 / copy-pic=1 / max-ausize-factor=1.0 / no-dynamic-refine / no-single-sei
    Default                     : Yes
    Forced                      : No
    Color range                 : Limited
    Color primaries             : BT.2020
    Transfer characteristics    : PQ
    Matrix coefficients         : BT.2020 non-constant
    Mastering display color pri : Display P3
    Mastering display luminance : min: 0.0020 cd/m2, max: 1000 cd/m2
    Maximum Content Light Level : 1193 cd/m2
    Maximum Frame-Average Light : 403 cd/m2

    Audio #1
    ID                          : 2
    Format                      : E-AC-3
    Format/Info                 : Enhanced AC-3
    Commercial name             : Dolby Digital Plus
    Codec ID                    : A_EAC3
    Duration                    : 1 h 1 min
    Bit rate mode               : Constant
    Bit rate                    : 640 kb/s
    Channel(s)                  : 6 channels
    Channel layout              : L R C LFE Ls Rs
    Sampling rate               : 48.0 kHz
    Frame rate                  : 31.250 FPS (1536 SPF)
    Compression mode            : Lossy
    Stream size                 : 283 MiB (3%)
    Title                       : Español Latino [CinemaniaHDD]
    Language                    : Spanish
    Service kind                : Complete Main
    Default                     : Yes
    Forced                      : No

    Audio #2
    ID                          : 3
    Format                      : E-AC-3
    Format/Info                 : Enhanced AC-3
    Commercial name             : Dolby Digital Plus
    Codec ID                    : A_EAC3
    Duration                    : 1 h 1 min
    Bit rate mode               : Constant
    Bit rate                    : 640 kb/s
    Channel(s)                  : 6 channels
    Channel layout              : L R C LFE Ls Rs
    Sampling rate               : 48.0 kHz
    Frame rate                  : 31.250 FPS (1536 SPF)
    Compression mode            : Lossy
    Stream size                 : 283 MiB (3%)
    Title                       : Ingles [CinemaniaHDD]
    Language                    : English
    Service kind                : Complete Main
    Default                     : No
    Forced                      : No

    Text #1
    ID                          : 4
    Format                      : UTF-8
    Codec ID                    : S_TEXT/UTF8
    Codec ID/Info               : UTF-8 Plain Text
    Duration                    : 59 min 55 s
    Bit rate                    : 0 b/s
    Count of elements           : 16
    Stream size                 : 395 Bytes (0%)
    Title                       : Forzados-SRT [CinemaniaHDD]
    Language                    : Spanish
    Default                     : Yes
    Forced                      : Yes

    Text #2
    ID                          : 5
    Format                      : UTF-8
    Codec ID                    : S_TEXT/UTF8
    Codec ID/Info               : UTF-8 Plain Text
    Duration                    : 59 min 55 s
    Bit rate                    : 58 b/s
    Count of elements           : 744
    Stream size                 : 25.8 KiB (0%)
    Title                       : Español-SRT [CinemaniaHDD]
    Language                    : Spanish
    Default                     : No
    Forced                      : No

    Text #3
    ID                          : 6
    Format                      : UTF-8
    Codec ID                    : S_TEXT/UTF8
    Codec ID/Info               : UTF-8 Plain Text
    Duration                    : 1 h 0 min
    Bit rate                    : 72 b/s
    Count of elements           : 916
    Stream size                 : 32.4 KiB (0%)
    Title                       : Ingles-SRT [CinemaniaHDD]
    Language                    : English
    Default                     : No
    Forced                      : No

  • Peso: 6.5 - 10.5 GiB Aprox. C/U | 91.5 GiB Total.

Sinopsis

Descargar Chilling Adventures of Sabrina (2018) Temporada 01/Parte 01 NF WEBRip 4K UHD HDR Latino. Sabrina está a punto de cumplir 16 años y se debate entre el mundo de la magia de su familia y el mundo real de sus amigos; por lo tanto, Sabrina no quiere ocultarle más a Harvey su origen, por ello le cuenta que nació en el bosque y no en el hospital que menciona su certificado, que tiene que renacer en la noche de su cumpleaños y por eso no puede acompañarlo a la fiesta de Halloween… por ese motivo le cuenta su secreto.
El Mundo Oculto de Sabrina (The Chilling Adventures of Sabrina) sigue los orígenes de la bruja adolescente, que tiene que hacer frente a su doble naturaleza de bruja y mortal. Tiene por tanto que reconciliar así a sus dos partes desde lo más oscuro de la brujería, pues las fuerzas malignas amenzan a su familia, amigos e incluso a la humanidad.

NOTA:
Proximamente para usuarios Free, Disponible Solo para VIP!! 🙂 

Ficha técnica

Video trailer de la película

Enlaces de descarga

Rip de Bluray

Descargar Chilling Adventures of Sabrina (2018) Temporada 01/Parte 01 NF WEBRip 4K UHD HDR Latino


Aportes de DPeliculasHDmega la pass es:dpeliculashdmega.org Aportes de CinemaniaHD la pass es:cinemaniahdd.com

Películas relacionadas

descargar Chilling Adventures of Sabrina (2018) Temporada 01/Parte 01 NF WEBRip 4K UHD HDR Latino WEBDL 1080p gratis, Chilling Adventures of Sabrina (2018) Temporada 01/Parte 01 NF WEBRip 4K UHD HDR Latino WEBDL mega 1 link, Chilling Adventures of Sabrina (2018) Temporada 01/Parte 01 NF WEBRip 4K UHD HDR Latino WEBDL serie completa, descargar Chilling Adventures of Sabrina (2018) Temporada 01/Parte 01 NF WEBRip 4K UHD HDR Latino WEBDL gratis en mega.

Chilling Adventures of Sabrina (2018) Temporada 01/Parte 01 NF WEBRip 4K UHD HDR Latino pelicula full hd, Chilling Adventures of Sabrina (2018) Temporada 01/Parte 01 NF WEBRip 4K UHD HDR Latino mega latino, Chilling Adventures of Sabrina (2018) Temporada 01/Parte 01 NF WEBRip 4K UHD HDR Latino 4k latino, Chilling Adventures of Sabrina (2018) Temporada 01/Parte 01 NF WEBRip 4K UHD HDR Latino pelicula completa, Chilling Adventures of Sabrina (2018) Temporada 01/Parte 01 NF WEBRip 4K UHD HDR Latino descargar gratis, descargar Chilling Adventures of Sabrina (2018) Temporada 01/Parte 01 NF WEBRip 4K UHD HDR Latino pelicula latino, Chilling Adventures of Sabrina (2018) Temporada 01/Parte 01 NF WEBRip 4K UHD HDR Latino 1 link mega, Chilling Adventures of Sabrina (2018) Temporada 01/Parte 01 NF WEBRip 4K UHD HDR Latino 1 link google drive, Chilling Adventures of Sabrina (2018) Temporada 01/Parte 01 NF WEBRip 4K UHD HDR Latino hd 1080p latino.
Comentarios 0