×

¿Problemas para descargar con Mozilla, EDGE? Deshabilita la opción "Abrir vinculos en una pestaña nueva" tal como lo muestra ésta imagen.

Chucky: El Muñeco Diabólico 3 (1991) REMUX 1080p Latino

141 vistas

Información de Chucky: El Muñeco Diabólico 3 (1991) REMUX 1080p Latino

Datos de la película

  • Calidad: Full 1080p
  • Audio: Se especifica abajo de la Sinopsis
  • Subtitulos: Español Latino PGS - Ingles PGS
  • Resolución: 1920x1080p
  • Formato: MKV
  • Codec: H.264
  • Encoder: CinefiloCool
  • Mediainfo: Clic para Mostrar Datos Ver
  • El Muñeco Diabólico 3 (1991) REMUX 1080p Latino-CMHDD.mkv
    Format                      : Matroska
    Format version              : Version 4
    File size                   : 21.0 GiB
    Duration                    : 1 h 29 min
    Overall bit rate mode       : Variable
    Overall bit rate            : 33.5 Mb/s
    Movie name                  : Child's Play 3 (1991) CinemaniaHDD.Net
    Encoded date                : UTC 2021-10-28 01:17:18
    Writing application         : mkvmerge v56.1.0 ('My Friend') 64-bit
    Writing library             : libebml v1.4.2 + libmatroska v1.6.4
    Attachments                 : CINEMANIAHD.png

    Video
    ID                          : 1
    ID in the original source m : 4113 (0x1011)
    Format                      : VC-1
    Format profile              : Advanced@L3
    Codec ID                    : V_MS/VFW/FOURCC / WVC1
    Codec ID/Hint               : Microsoft
    Duration                    : 1 h 29 min
    Bit rate                    : 31.4 Mb/s
    Width                       : 1 920 pixels
    Height                      : 1 080 pixels
    Display aspect ratio        : 16:9
    Frame rate mode             : Constant
    Frame rate                  : 23.976 (24000/1001) FPS
    Color space                 : YUV
    Chroma subsampling          : 4:2:0
    Bit depth                   : 8 bits
    Scan type                   : Progressive
    Compression mode            : Lossy
    Bits/(Pixel*Frame)          : 0.633
    Stream size                 : 19.7 GiB (94%)
    Title                       : REMUX HD1080p [CinemaniaHDD]
    Default                     : Yes
    Forced                      : Yes
    Original source medium      : Blu-ray

    Audio #1
    ID                          : 2
    Format                      : AC-3
    Format/Info                 : Audio Coding 3
    Commercial name             : Dolby Digital
    Codec ID                    : A_AC3
    Duration                    : 1 h 29 min
    Bit rate mode               : Constant
    Bit rate                    : 320 kb/s
    Channel(s)                  : 2 channels
    Channel layout              : L R
    Sampling rate               : 48.0 kHz
    Frame rate                  : 31.250 FPS (1536 SPF)
    Compression mode            : Lossy
    Stream size                 : 205 MiB (1%)
    Title                       : Español Latino [CinemaniaHDD]
    Language                    : Spanish
    Service kind                : Complete Main
    Default                     : Yes
    Forced                      : Yes

    Audio #2
    ID                          : 3
    ID in the original source m : 4352 (0x1100)
    Format                      : DTS XLL
    Format/Info                 : Digital Theater Systems
    Commercial name             : DTS-HD Master Audio
    Codec ID                    : A_DTS
    Duration                    : 1 h 29 min
    Bit rate mode               : Variable
    Bit rate                    : 1 702 kb/s
    Channel(s)                  : 2 channels
    Sampling rate               : 48.0 kHz
    Frame rate                  : 93.750 FPS (512 SPF)
    Bit depth                   : 24 bits
    Compression mode            : Lossless
    Stream size                 : 1.07 GiB (5%)
    Title                       : Ingles [CinemaniaHDD]
    Language                    : English
    Default                     : No
    Forced                      : No
    Original source medium      : Blu-ray

    Text #1
    ID                          : 4
    ID in the original source m : 4609 (0x1201)
    Format                      : PGS
    Muxing mode                 : zlib
    Codec ID                    : S_HDMV/PGS
    Codec ID/Info               : Picture based subtitle format used on BDs/HD-DVDs
    Duration                    : 1 h 21 min
    Bit rate                    : 24.8 kb/s
    Count of elements           : 1318
    Stream size                 : 14.4 MiB (0%)
    Title                       : Español-PGS [CinemaniaHDD]
    Language                    : Spanish
    Default                     : No
    Forced                      : No
    Original source medium      : Blu-ray

    Text #2
    ID                          : 5
    ID in the original source m : 4608 (0x1200)
    Format                      : PGS
    Muxing mode                 : zlib
    Codec ID                    : S_HDMV/PGS
    Codec ID/Info               : Picture based subtitle format used on BDs/HD-DVDs
    Duration                    : 1 h 24 min
    Bit rate                    : 32.3 kb/s
    Count of elements           : 2176
    Stream size                 : 19.6 MiB (0%)
    Title                       : Ingles-PGS [CinemaniaHDD]
    Language                    : English
    Default                     : No
    Forced                      : No
    Original source medium      : Blu-ray

    Text #3
    ID                          : 6
    Format                      : UTF-8
    Codec ID                    : S_TEXT/UTF8
    Codec ID/Info               : UTF-8 Plain Text
    Duration                    : 1 h 3 min
    Bit rate                    : 0 b/s
    Count of elements           : 4
    Stream size                 : 98.0 Bytes (0%)
    Title                       : Forzados-SRT [CinemaniaHDD]
    Language                    : Spanish
    Default                     : Yes
    Forced                      : Yes

    Text #4
    ID                          : 7
    Format                      : UTF-8
    Codec ID                    : S_TEXT/UTF8
    Codec ID/Info               : UTF-8 Plain Text
    Duration                    : 1 h 21 min
    Bit rate                    : 42 b/s
    Count of elements           : 682
    Stream size                 : 25.2 KiB (0%)
    Title                       : Español-SRT [CinemaniaHDD]
    Language                    : Spanish
    Default                     : No
    Forced                      : No

    Menu
    00:00:00.000                : Chapter 01
    00:04:01.407                : Chapter 02
    00:09:21.602                : Chapter 03
    00:14:20.484                : Chapter 04
    00:20:24.765                : Chapter 05
    00:24:06.862                : Chapter 06
    00:29:22.635                : Chapter 07
    00:35:28.459                : Chapter 08
    00:39:57.561                : Chapter 09
    00:43:47.416                : Chapter 10
    00:49:33.011                : Chapter 11
    00:55:19.649                : Chapter 12
    01:00:15.778                : Chapter 13
    01:04:06.092                : Chapter 14
    01:10:10.247                : Chapter 15
    01:14:08.318                : Chapter 16
    01:19:37.189                : Chapter 17
    01:25:35.839                : Chapter 18

  • Peso: 21.0 GiB

Sinopsis

Descargar Chucky: El Muñeco Diabólico 3 (1991) REMUX 1080p Latino. Ocho años después del día en que creyó haber destruido al muñeco asesino, Andy Barclay cumple los dieciséis y entra en una academia militar. Mientras, el codicioso presidente de la empresa de juguetes Play Pals decide resucitar la popular línea de muñecos Good Guys. Cuando la cadena de montaje recrea el primer muñeco a partir de una masa de plástico derretido, el espíritu de Chucky regresa con renovadas intenciones de alcanzar su objetivo y vengarse de Andy.

Audio Español Latino AC3 2.0 Bluray – Ingles DTS-HD 2.0 Bluray
Disponible Solo Para VIP!!!

 

Ficha técnica

  • Titulo original: Child's Play 3
  • Fecha de lanzamiento: 30-08-1991 (United Kingdom, United States of America)
  • Director: Jack Bender
  • Género: Remux, Suspenso, Terror

Video trailer de la película

Enlaces de descarga

Rip de Bluray

Descargar Chucky: El Muñeco Diabólico 3 (1991) REMUX 1080p Latino


Aportes de DPeliculasHDmega la pass es:dpeliculashdmega.org Aportes de CinemaniaHD la pass es:cinemaniahdd.com
Guardado en : Remux , Suspenso , Terror

Películas relacionadas

  • Nightmare Alley (2021) REMUX 4K HDR Latino – CMHDD

    Nightmare Alley (2021) REMUX 4K HDR Latino – CMHDD

    2021
    Nightmare Alley (2021) REMUX 4K HDR Latino – CMHDD

    2h 30m 2021

    Un buscavidas se compincha con una pitonisa para engañar a la gente y conseguir dinero... Remake del...

    Director: Guillermo del Toro

    Género: Crimen

    Actores: Willem Dafoe

  • Llamas de venganza (2022) HD 1080p Latino

    Llamas de venganza (2022) HD 1080p Latino

    2022
    Llamas de venganza (2022) HD 1080p Latino

    0h 0m 2022

    Descargar Llamas de venganza (2022) HD 1080p Latino. Andy y Vicky son unos padres que llevan más de...

    Director: Keith Thomas

    Género: Fantasía

    Actores: Zac Efron

  • Llamas de venganza (2022) REMUX 1080p Latino

    Llamas de venganza (2022) REMUX 1080p Latino

    2022
    Llamas de venganza (2022) REMUX 1080p Latino

    0h 0m 2022

    Descargar Llamas de venganza (2022) REMUX 1080p Latino. Andy y Vicky son unos padres que llevan más...

    Director: Keith Thomas

    Género: Fantasía

    Actores: Zac Efron

Chucky: El Muñeco Diabólico 3 (1991) REMUX 1080p Latino pelicula full hd, Chucky: El Muñeco Diabólico 3 (1991) REMUX 1080p Latino mega latino, Chucky: El Muñeco Diabólico 3 (1991) REMUX 1080p Latino 4k latino, Chucky: El Muñeco Diabólico 3 (1991) REMUX 1080p Latino pelicula completa, Chucky: El Muñeco Diabólico 3 (1991) REMUX 1080p Latino descargar gratis, descargar Chucky: El Muñeco Diabólico 3 (1991) REMUX 1080p Latino pelicula latino, Chucky: El Muñeco Diabólico 3 (1991) REMUX 1080p Latino 1 link mega, Chucky: El Muñeco Diabólico 3 (1991) REMUX 1080p Latino 1 link google drive, Chucky: El Muñeco Diabólico 3 (1991) REMUX 1080p Latino hd 1080p latino.
Comentarios 0