×

¿Problemas para descargar con Mozilla, EDGE? Deshabilita la opción "Abrir vinculos en una pestaña nueva" tal como lo muestra ésta imagen.

Chucky: El Muñeco Diabólico 3 (1991) Full HD 1080p Latino

1.841 vistas

Información de Chucky: El Muñeco Diabólico 3 (1991) Full HD 1080p Latino

Datos de la película

  • Calidad: Full 1080p
  • Audio: Se especifica abajo de la Sinopsis
  • Subtitulos: Español Latino PGS - Ingles PGS
  • Resolución: 1920x1080p
  • Formato: MKV
  • Codec: H.264
  • Encoder: dpelis1
  • Mediainfo: Clic para Mostrar Datos Ver
  • El Muñeco Diabólico 3 (1991) Full HD 1080p Latino-CMHDD.mkv
    Format                      : Matroska
    Format version              : Version 4
    File size                   : 7.58 GiB
    Duration                    : 1 h 29 min
    Overall bit rate            : 12.1 Mb/s
    Movie name                  : Child's Play 3 (1991) CinemaniaHDD.Net
    Encoded date                : UTC 2022-07-22 04:33:52
    Writing application         : mkvmerge v56.1.0 ('My Friend') 64-bit
    Writing library             : libebml v1.4.2 + libmatroska v1.6.4
    Attachments                 : CINEMANIAHD.png

    Video
    ID                          : 1
    Format                      : AVC
    Format/Info                 : Advanced Video Codec
    Format profile              : High@L4.1
    Format settings             : CABAC / 4 Ref Frames
    Format settings, CABAC      : Yes
    Format settings, Reference  : 4 frames
    Codec ID                    : V_MPEG4/ISO/AVC
    Duration                    : 1 h 29 min
    Bit rate                    : 10.3 Mb/s
    Width                       : 1 920 pixels
    Height                      : 1 080 pixels
    Display aspect ratio        : 16:9
    Frame rate mode             : Constant
    Frame rate                  : 23.976 (24000/1001) FPS
    Color space                 : YUV
    Chroma subsampling          : 4:2:0
    Bit depth                   : 8 bits
    Scan type                   : Progressive
    Bits/(Pixel*Frame)          : 0.206
    Stream size                 : 6.43 GiB (85%)
    Title                       : Full HD1080p [CinemaniaHDD]
    Writing library             : x264 core 148 r2708 86b7198
    Encoding settings           : cabac=1 / ref=4 / deblock=1:0:0 / analyse=0x3:0x133 / me=esa / subme=10 / psy=1 / psy_rd=1.00:0.00 / mixed_ref=1 / me_range=24 / chroma_me=1 / trellis=2 / 8x8dct=1 / cqm=0 / deadzone=21,11 / fast_pskip=1 / chroma_qp_offset=-2 / threads=12 / lookahead_threads=2 / sliced_threads=0 / nr=0 / decimate=1 / interlaced=0 / bluray_compat=0 / constrained_intra=0 / bframes=8 / b_pyramid=2 / b_adapt=2 / b_bias=0 / direct=3 / weightb=1 / open_gop=0 / weightp=2 / keyint=240 / keyint_min=24 / scenecut=40 / intra_refresh=0 / rc_lookahead=60 / rc=crf / mbtree=1 / crf=20.0 / qcomp=0.60 / qpmin=0 / qpmax=69 / qpstep=4 / vbv_maxrate=62500 / vbv_bufsize=78125 / crf_max=0.0 / nal_hrd=none / filler=0 / ip_ratio=1.40 / aq=1:1.00
    Default                     : Yes
    Forced                      : Yes
    Color range                 : Limited
    Color primaries             : BT.709
    Transfer characteristics    : BT.709
    Matrix coefficients         : BT.709

    Audio #1
    ID                          : 2
    Format                      : AC-3
    Format/Info                 : Audio Coding 3
    Commercial name             : Dolby Digital
    Codec ID                    : A_AC3
    Duration                    : 1 h 29 min
    Bit rate mode               : Constant
    Bit rate                    : 320 kb/s
    Channel(s)                  : 2 channels
    Channel layout              : L R
    Sampling rate               : 48.0 kHz
    Frame rate                  : 31.250 FPS (1536 SPF)
    Compression mode            : Lossy
    Stream size                 : 205 MiB (3%)
    Title                       : Español Latino [CinemaniaHDD]
    Language                    : Spanish
    Service kind                : Complete Main
    Default                     : Yes
    Forced                      : Yes

    Audio #2
    ID                          : 3
    Format                      : DTS
    Format/Info                 : Digital Theater Systems
    Codec ID                    : A_DTS
    Duration                    : 1 h 29 min
    Bit rate mode               : Constant
    Bit rate                    : 1 509 kb/s
    Channel(s)                  : 2 channels
    Channel layout              : Lt Rt
    Sampling rate               : 48.0 kHz
    Frame rate                  : 93.750 FPS (512 SPF)
    Bit depth                   : 24 bits
    Compression mode            : Lossy
    Stream size                 : 968 MiB (12%)
    Title                       : Ingles [CinemaniaHDD]
    Language                    : English
    Default                     : No
    Forced                      : No

    Text #1
    ID                          : 4
    Format                      : PGS
    Muxing mode                 : zlib
    Codec ID                    : S_HDMV/PGS
    Codec ID/Info               : Picture based subtitle format used on BDs/HD-DVDs
    Duration                    : 1 h 21 min
    Bit rate                    : 24.8 kb/s
    Count of elements           : 1318
    Stream size                 : 14.4 MiB (0%)
    Title                       : Español-PGS [CinemaniaHDD]
    Language                    : Spanish
    Default                     : No
    Forced                      : No

    Text #2
    ID                          : 5
    Format                      : PGS
    Muxing mode                 : zlib
    Codec ID                    : S_HDMV/PGS
    Codec ID/Info               : Picture based subtitle format used on BDs/HD-DVDs
    Duration                    : 1 h 24 min
    Bit rate                    : 32.3 kb/s
    Count of elements           : 2176
    Stream size                 : 19.6 MiB (0%)
    Title                       : Ingles-PGS [CinemaniaHDD]
    Language                    : English
    Default                     : No
    Forced                      : No

    Text #3
    ID                          : 6
    Format                      : UTF-8
    Codec ID                    : S_TEXT/UTF8
    Codec ID/Info               : UTF-8 Plain Text
    Duration                    : 1 h 3 min
    Bit rate                    : 0 b/s
    Count of elements           : 4
    Stream size                 : 98.0 Bytes (0%)
    Title                       : Forzados-SRT [CinemaniaHDD]
    Language                    : Spanish
    Default                     : Yes
    Forced                      : Yes

    Text #4
    ID                          : 7
    Format                      : UTF-8
    Codec ID                    : S_TEXT/UTF8
    Codec ID/Info               : UTF-8 Plain Text
    Duration                    : 1 h 21 min
    Bit rate                    : 42 b/s
    Count of elements           : 682
    Stream size                 : 25.2 KiB (0%)
    Title                       : Español-SRT [CinemaniaHDD]
    Language                    : Spanish
    Default                     : No
    Forced                      : No

    Menu
    00:00:00.000                : :Chapter 1
    00:04:01.408                : :Chapter 2
    00:09:21.603                : :Chapter 3
    00:14:20.485                : :Chapter 4
    00:20:24.765                : :Chapter 5
    00:24:06.862                : :Chapter 6
    00:29:22.594                : :Chapter 7
    00:35:27.626                : :Chapter 8
    00:39:57.562                : :Chapter 9
    00:43:47.416                : :Chapter 10
    00:49:33.012                : :Chapter 11
    00:55:19.650                : :Chapter 12
    01:00:15.779                : :Chapter 13
    01:04:06.092                : :Chapter 14
    01:10:10.248                : :Chapter 15
    01:14:08.319                : :Chapter 16
    01:19:37.189                : :Chapter 17
    01:25:35.839                : :Chapter 18

  • Peso: 7,58 GiB

Sinopsis

Descargar Chucky: El Muñeco Diabólico 3 (1991) Full HD 1080p Latino. Ocho años después del día en que creyó haber destruido al muñeco asesino, Andy Barclay cumple los dieciséis y entra en una academia militar. Mientras, el codicioso presidente de la empresa de juguetes Play Pals decide resucitar la popular línea de muñecos Good Guys. Cuando la cadena de montaje recrea el primer muñeco a partir de una masa de plástico derretido, el espíritu de Chucky regresa con renovadas intenciones de alcanzar su objetivo y vengarse de Andy.

Audio Español Latino AC3 2.0 Bluray – Ingles DTS 2.0 Bluray
RESUBIDO!!!

Ficha técnica

Video trailer de la película

Enlaces de descarga

Rip de Bluray

Descargar Chucky: El Muñeco Diabólico 3 (1991) Full HD 1080p Latino




Aportes de DPeliculasHDmega la pass es:dpeliculashdmega.org Aportes de CinemaniaHD la pass es:cinemaniahdd.com
Guardado en : FULL 1080p Plateadas , Sagas , Terror

Películas relacionadas

  • They/Them (2022) PCOK WEB-DL 1080p Latino

    They/Them (2022) PCOK WEB-DL 1080p Latino

    2022
    They/Them (2022) PCOK WEB-DL 1080p Latino

    1h 41m 2022

    Un grupo de adolescentes LGBTQIA+ se dirigen al Campamento Whistler, un centro para adolescentes...

    Director: John Logan

    Género: Suspenso

    Actores: Theo Germaine

  • Vivo (2021) PLACEBO Full HD 1080p Latino

    Vivo (2021) PLACEBO Full HD 1080p Latino

    2021
    Vivo (2021) PLACEBO Full HD 1080p Latino

    1h 35m 2021

    Descargar Vivo (2021) PLACEBO Full HD 1080p Latino. Narra la vida de Vivo, un kinkajú («oso de la miel»...

    Director: Kirk DeMicco

    Género: Animación

    Actores: Zoe Saldana

Chucky: El Muñeco Diabólico 3 (1991) Full HD 1080p Latino pelicula full hd, Chucky: El Muñeco Diabólico 3 (1991) Full HD 1080p Latino mega latino, Chucky: El Muñeco Diabólico 3 (1991) Full HD 1080p Latino 4k latino, Chucky: El Muñeco Diabólico 3 (1991) Full HD 1080p Latino pelicula completa, Chucky: El Muñeco Diabólico 3 (1991) Full HD 1080p Latino descargar gratis, descargar Chucky: El Muñeco Diabólico 3 (1991) Full HD 1080p Latino pelicula latino, Chucky: El Muñeco Diabólico 3 (1991) Full HD 1080p Latino 1 link mega, Chucky: El Muñeco Diabólico 3 (1991) Full HD 1080p Latino 1 link google drive, Chucky: El Muñeco Diabólico 3 (1991) Full HD 1080p Latino hd 1080p latino.
Comentarios 0