×

¿Problemas para descargar con Mozilla, EDGE? Deshabilita la opción "Abrir vinculos en una pestaña nueva" tal como lo muestra ésta imagen.

Chucky: El Muñeco Diabólico 2 (1990) Full HD 1080p Latino

2.187 vistas

Información de Chucky: El Muñeco Diabólico 2 (1990) Full HD 1080p Latino

Datos de la película

  • Calidad: Full 1080p
  • Audio: Se especifica abajo de la Sinopsis
  • Subtitulos: Español Latino PGS - Ingles PGS
  • Resolución: 1920x1080p
  • Formato: MKV
  • Codec: H.264
  • Encoder: dpelis1
  • Mediainfo: Clic para Mostrar Datos Ver
  • El Muñeco Diabólico 2 (1990) Full HD 1080p Latino-CMHDD.mkv
    Format                      : Matroska
    Format version              : Version 4
    File size                   : 7.12 GiB
    Duration                    : 1 h 23 min
    Overall bit rate            : 12.1 Mb/s
    Movie name                  : Child's Play 2 (1990) CinemaniaHDD.Net
    Encoded date                : UTC 2022-07-22 04:28:12
    Writing application         : mkvmerge v56.1.0 ('My Friend') 64-bit
    Writing library             : libebml v1.4.2 + libmatroska v1.6.4
    Attachments                 : CINEMANIAHD.png

    Video
    ID                          : 1
    Format                      : AVC
    Format/Info                 : Advanced Video Codec
    Format profile              : High@L4.1
    Format settings             : CABAC / 4 Ref Frames
    Format settings, CABAC      : Yes
    Format settings, Reference  : 4 frames
    Codec ID                    : V_MPEG4/ISO/AVC
    Duration                    : 1 h 23 min
    Bit rate                    : 10.3 Mb/s
    Width                       : 1 920 pixels
    Height                      : 1 080 pixels
    Display aspect ratio        : 16:9
    Frame rate mode             : Constant
    Frame rate                  : 23.976 (24000/1001) FPS
    Color space                 : YUV
    Chroma subsampling          : 4:2:0
    Bit depth                   : 8 bits
    Scan type                   : Progressive
    Bits/(Pixel*Frame)          : 0.207
    Stream size                 : 6.04 GiB (85%)
    Title                       : Full HD1080p [CinemaniaHDD]
    Writing library             : x264 core 148 r2708 86b7198
    Encoding settings           : cabac=1 / ref=4 / deblock=1:0:0 / analyse=0x3:0x133 / me=esa / subme=10 / psy=1 / psy_rd=1.00:0.00 / mixed_ref=1 / me_range=24 / chroma_me=1 / trellis=2 / 8x8dct=1 / cqm=0 / deadzone=21,11 / fast_pskip=1 / chroma_qp_offset=-2 / threads=12 / lookahead_threads=2 / sliced_threads=0 / nr=0 / decimate=1 / interlaced=0 / bluray_compat=0 / constrained_intra=0 / bframes=8 / b_pyramid=2 / b_adapt=2 / b_bias=0 / direct=3 / weightb=1 / open_gop=0 / weightp=2 / keyint=240 / keyint_min=24 / scenecut=40 / intra_refresh=0 / rc_lookahead=60 / rc=crf / mbtree=1 / crf=20.0 / qcomp=0.60 / qpmin=0 / qpmax=69 / qpstep=4 / vbv_maxrate=62500 / vbv_bufsize=78125 / crf_max=0.0 / nal_hrd=none / filler=0 / ip_ratio=1.40 / aq=1:1.00
    Default                     : Yes
    Forced                      : Yes
    Color range                 : Limited
    Color primaries             : BT.709
    Transfer characteristics    : BT.709
    Matrix coefficients         : BT.709

    Audio #1
    ID                          : 2
    Format                      : AC-3
    Format/Info                 : Audio Coding 3
    Commercial name             : Dolby Digital
    Codec ID                    : A_AC3
    Duration                    : 1 h 23 min
    Bit rate mode               : Constant
    Bit rate                    : 320 kb/s
    Channel(s)                  : 2 channels
    Channel layout              : L R
    Sampling rate               : 48.0 kHz
    Frame rate                  : 31.250 FPS (1536 SPF)
    Compression mode            : Lossy
    Stream size                 : 189 MiB (3%)
    Title                       : Español Latino [CinemaniaHDD]
    Language                    : Spanish
    Service kind                : Complete Main
    Default                     : Yes
    Forced                      : Yes

    Audio #2
    ID                          : 3
    Format                      : DTS
    Format/Info                 : Digital Theater Systems
    Codec ID                    : A_DTS
    Duration                    : 1 h 23 min
    Bit rate mode               : Constant
    Bit rate                    : 1 509 kb/s
    Channel(s)                  : 2 channels
    Channel layout              : Lt Rt
    Sampling rate               : 48.0 kHz
    Frame rate                  : 93.750 FPS (512 SPF)
    Bit depth                   : 24 bits
    Compression mode            : Lossy
    Stream size                 : 906 MiB (12%)
    Title                       : Ingles [CinemaniaHDD]
    Language                    : English
    Default                     : No
    Forced                      : No

    Text #1
    ID                          : 4
    Format                      : PGS
    Muxing mode                 : zlib
    Codec ID                    : S_HDMV/PGS
    Codec ID/Info               : Picture based subtitle format used on BDs/HD-DVDs
    Duration                    : 1 h 18 min
    Bit rate                    : 21.0 kb/s
    Count of elements           : 1122
    Stream size                 : 11.9 MiB (0%)
    Title                       : Español-PGS [CinemaniaHDD]
    Language                    : Spanish
    Default                     : No
    Forced                      : No

    Text #2
    ID                          : 5
    Format                      : PGS
    Muxing mode                 : zlib
    Codec ID                    : S_HDMV/PGS
    Codec ID/Info               : Picture based subtitle format used on BDs/HD-DVDs
    Duration                    : 1 h 18 min
    Bit rate                    : 26.5 kb/s
    Count of elements           : 1605
    Stream size                 : 14.8 MiB (0%)
    Title                       : Ingles-PGS [CinemaniaHDD]
    Language                    : English
    Default                     : No
    Forced                      : No

    Text #3
    ID                          : 6
    Format                      : UTF-8
    Codec ID                    : S_TEXT/UTF8
    Codec ID/Info               : UTF-8 Plain Text
    Duration                    : 4 s 754 ms
    Bit rate                    : 38 b/s
    Count of elements           : 1
    Stream size                 : 23.0 Bytes (0%)
    Title                       : Forzados-SRT [CinemaniaHDD]
    Language                    : Spanish
    Default                     : Yes
    Forced                      : Yes

    Text #4
    ID                          : 7
    Format                      : UTF-8
    Codec ID                    : S_TEXT/UTF8
    Codec ID/Info               : UTF-8 Plain Text
    Duration                    : 1 h 18 min
    Bit rate                    : 33 b/s
    Count of elements           : 560
    Stream size                 : 19.6 KiB (0%)
    Title                       : Español-SRT [CinemaniaHDD]
    Language                    : Spanish
    Default                     : No
    Forced                      : No

    Menu
    00:00:00.000                : :Chapter 1
    00:03:49.771                : :Chapter 2
    00:04:58.965                : :Chapter 3
    00:06:20.088                : :Chapter 4
    00:09:36.159                : :Chapter 5
    00:14:59.399                : :Chapter 6
    00:20:09.625                : :Chapter 7
    00:26:00.809                : :Chapter 8
    00:29:46.326                : :Chapter 9
    00:34:05.001                : :Chapter 10
    00:42:35.595                : :Chapter 11
    00:48:27.780                : :Chapter 12
    00:50:35.783                : :Chapter 13
    00:59:53.256                : :Chapter 14
    01:04:52.222                : :Chapter 15
    01:15:04.917                : :Chapter 16
    01:16:58.114                : :Chapter 17
    01:20:19.940                : :Chapter 18

  • Peso: 7.12 GiB

Sinopsis

Descargar Chucky: El Muñeco Diabólico 2 (1990) Full HD 1080p Latino. Chucky ha vuelto. El famoso muñeco asesino de sonrisa satánica resucita en este nuevo episodio. A pesar de que en su última escapada quedó totalmente achicharrado, Chucky resurge de sus cenizas cuando una fábrica de juguetes decide reconstruirlo para acabar con la mala publicidad que la rodea. Chucky vuelve a estar entero y sigue la pista de su presa hasta una familia de acogida..

Audio Español Latino AC3 2.0 Bluray – Ingles DTS 2.0 Bluray
RESUBIDO!!!

Ficha técnica

Video trailer de la película

Enlaces de descarga

Rip de Bluray

Descargar Chucky: El Muñeco Diabólico 2 (1990) Full HD 1080p Latino




Aportes de DPeliculasHDmega la pass es:dpeliculashdmega.org Aportes de CinemaniaHD la pass es:cinemaniahdd.com
Guardado en : Drama , FULL 1080p Plateadas , Sagas , Terror

Películas relacionadas

  • Emily la criminal (2022) HD 1080p Latino

    Emily la criminal (2022) HD 1080p Latino

    2022
    Emily la criminal (2022) HD 1080p Latino

    1h 37m 2022

    Descargar Emily la criminal (2022) HD 1080p Latino. Emily, que tiene una deuda estudiantil y está excluida...

    Director: John Patton Ford

    Género: Crimen

    Actores: Theo Rossi

  • Emily la criminal (2022) REMUX 1080p Latino

    Emily la criminal (2022) REMUX 1080p Latino

    2022
    Emily la criminal (2022) REMUX 1080p Latino

    1h 37m 2022

    Descargar Emily la criminal (2022) REMUX 1080p Latino. Emily, que tiene una deuda estudiantil y está...

    Director: John Patton Ford

    Género: Crimen

    Actores: Theo Rossi

  • Território Hostil (2022) HD 1080p Latino

    Território Hostil (2022) HD 1080p Latino

    2022
    Território Hostil (2022) HD 1080p Latino

    1h 34m 2022

    Descargar Território Hostil (2022) HD 1080p Latino. En los Estados Unidos posteriores a la guerra civil,...

    Director: Brian Presley

    Género: Drama

    Actores: Natalie Whittle

descargar Chucky: El Muñeco Diabólico 2 (1990) Full HD 1080p Latino Full 1080p 1080p gratis, Chucky: El Muñeco Diabólico 2 (1990) Full HD 1080p Latino Full 1080p mega 1 link, Chucky: El Muñeco Diabólico 2 (1990) Full HD 1080p Latino Full 1080p pelicula completa, descargar Chucky: El Muñeco Diabólico 2 (1990) Full HD 1080p Latino Full 1080p gratis en mega.

Chucky: El Muñeco Diabólico 2 (1990) Full HD 1080p Latino pelicula full hd, Chucky: El Muñeco Diabólico 2 (1990) Full HD 1080p Latino mega latino, Chucky: El Muñeco Diabólico 2 (1990) Full HD 1080p Latino 4k latino, Chucky: El Muñeco Diabólico 2 (1990) Full HD 1080p Latino pelicula completa, Chucky: El Muñeco Diabólico 2 (1990) Full HD 1080p Latino descargar gratis, descargar Chucky: El Muñeco Diabólico 2 (1990) Full HD 1080p Latino pelicula latino, Chucky: El Muñeco Diabólico 2 (1990) Full HD 1080p Latino 1 link mega, Chucky: El Muñeco Diabólico 2 (1990) Full HD 1080p Latino 1 link google drive, Chucky: El Muñeco Diabólico 2 (1990) Full HD 1080p Latino hd 1080p latino.
Comentarios 2
  • Martin - 23 agosto, 2017

    Subiran los enlaces para descargar en Google Drive???

    • dpelis - 23 agosto, 2017

      esto es un post antiguo