×

¿Problemas para descargar con Mozilla, EDGE? Deshabilita la opción "Abrir vinculos en una pestaña nueva" tal como lo muestra ésta imagen.

Chucky: El Muñeco Diabólico (1988) REMUX 1080p Latino

298 vistas

Información de Chucky: El Muñeco Diabólico (1988) REMUX 1080p Latino

Datos de la película

  • Calidad: Full 1080p
  • Audio: Español Latino AC3 5.1 BLURAY - Ingles DTS 5.1 BLURAY
  • Subtitulos: Español Latino PGS - Ingles PGS
  • Resolución: 1920x1080p
  • Formato: MKV
  • Codec: H.264
  • Encoder: CinefiloCool
  • Mediainfo: Clic para Mostrar Datos Ver
  • El Muñeco Diabólico (1988) REMUX 1080p Latino-CMHDD.mkv
    Format                      : Matroska
    Format version              : Version 4
    File size                   : 23.1 GiB
    Duration                    : 1 h 27 min
    Overall bit rate mode       : Variable
    Overall bit rate            : 37.9 Mb/s
    Movie name                  : Child's Play (1988) CinemaniaHDD.Net
    Encoded date                : UTC 2021-10-27 20:43:32
    Writing application         : mkvmerge v56.1.0 ('My Friend') 64-bit
    Writing library             : libebml v1.4.2 + libmatroska v1.6.4

    Video
    ID                          : 1
    Format                      : AVC
    Format/Info                 : Advanced Video Codec
    Format profile              : High@L4.1
    Format settings             : CABAC / 4 Ref Frames
    Format settings, CABAC      : Yes
    Format settings, Reference  : 4 frames
    Codec ID                    : V_MPEG4/ISO/AVC
    Duration                    : 1 h 27 min
    Bit rate mode               : Constant
    Bit rate                    : 35.0 Mb/s
    Width                       : 1 920 pixels
    Height                      : 1 080 pixels
    Display aspect ratio        : 16:9
    Frame rate mode             : Constant
    Frame rate                  : 23.976 (24000/1001) FPS
    Color space                 : YUV
    Chroma subsampling          : 4:2:0
    Bit depth                   : 8 bits
    Scan type                   : Progressive
    Bits/(Pixel*Frame)          : 0.704
    Stream size                 : 20.6 GiB (89%)
    Title                       : REMUX HD1080p [CinemaniaHDD]
    Default                     : Yes
    Forced                      : Yes

    Audio #1
    ID                          : 2
    Format                      : AC-3
    Format/Info                 : Audio Coding 3
    Commercial name             : Dolby Digital
    Codec ID                    : A_AC3
    Duration                    : 1 h 27 min
    Bit rate mode               : Constant
    Bit rate                    : 448 kb/s
    Channel(s)                  : 6 channels
    Channel layout              : L R C LFE Ls Rs
    Sampling rate               : 48.0 kHz
    Frame rate                  : 31.250 FPS (1536 SPF)
    Compression mode            : Lossy
    Stream size                 : 279 MiB (1%)
    Title                       : Español Latino [CinemaniaHDD]
    Language                    : Spanish
    Service kind                : Complete Main
    Default                     : Yes
    Forced                      : Yes

    Audio #2
    ID                          : 3
    Format                      : DTS XLL
    Format/Info                 : Digital Theater Systems
    Commercial name             : DTS-HD Master Audio
    Codec ID                    : A_DTS
    Duration                    : 1 h 27 min
    Bit rate mode               : Variable
    Bit rate                    : 3 660 kb/s
    Channel(s)                  : 6 channels
    Channel layout              : C L R Ls Rs LFE
    Sampling rate               : 48.0 kHz
    Frame rate                  : 93.750 FPS (512 SPF)
    Bit depth                   : 24 bits
    Compression mode            : Lossless
    Stream size                 : 2.23 GiB (10%)
    Title                       : Ingles [CinemaniaHDD]
    Language                    : English
    Default                     : No
    Forced                      : No

    Text #1
    ID                          : 4
    Format                      : PGS
    Muxing mode                 : zlib
    Codec ID                    : S_HDMV/PGS
    Codec ID/Info               : Picture based subtitle format used on BDs/HD-DVDs
    Duration                    : 41 min 11 s
    Bit rate                    : 108 b/s
    Count of elements           : 6
    Stream size                 : 32.6 KiB (0%)
    Title                       : Forzados-PGS [CinemaniaHDD]
    Language                    : Spanish
    Default                     : No
    Forced                      : No

    Text #2
    ID                          : 5
    Format                      : PGS
    Muxing mode                 : zlib
    Codec ID                    : S_HDMV/PGS
    Codec ID/Info               : Picture based subtitle format used on BDs/HD-DVDs
    Duration                    : 1 h 26 min
    Bit rate                    : 22.5 kb/s
    Count of elements           : 1463
    Stream size                 : 13.9 MiB (0%)
    Title                       : Español-PGS [CinemaniaHDD]
    Language                    : Spanish
    Default                     : No
    Forced                      : No

    Text #3
    ID                          : 6
    Format                      : PGS
    Muxing mode                 : zlib
    Codec ID                    : S_HDMV/PGS
    Codec ID/Info               : Picture based subtitle format used on BDs/HD-DVDs
    Duration                    : 1 h 23 min
    Bit rate                    : 47.4 kb/s
    Count of elements           : 1914
    Stream size                 : 28.2 MiB (0%)
    Title                       : Ingles-PGS [CinemaniaHDD]
    Language                    : English
    Default                     : No
    Forced                      : No

    Text #4
    ID                          : 7
    Format                      : UTF-8
    Codec ID                    : S_TEXT/UTF8
    Codec ID/Info               : UTF-8 Plain Text
    Duration                    : 1 h 3 min
    Bit rate                    : 0 b/s
    Count of elements           : 7
    Stream size                 : 158 Bytes (0%)
    Title                       : Forzados-SRT [CinemaniaHDD]
    Language                    : Spanish
    Default                     : Yes
    Forced                      : Yes

    Text #5
    ID                          : 8
    Format                      : UTF-8
    Codec ID                    : S_TEXT/UTF8
    Codec ID/Info               : UTF-8 Plain Text
    Duration                    : 1 h 22 min
    Bit rate                    : 35 b/s
    Count of elements           : 623
    Stream size                 : 21.5 KiB (0%)
    Title                       : Español-SRT [CinemaniaHDD]
    Language                    : Spanish
    Default                     : No
    Forced                      : No

    Menu
    00:00:00.000                : 00:00:00.000
    00:06:19.296                : 00:06:19.296
    00:13:21.217                : 00:13:21.217
    00:23:44.465                : 00:23:44.465
    00:29:36.024                : 00:29:36.024
    00:39:03.758                : 00:39:03.758
    00:46:46.470                : 00:46:46.470
    00:53:25.536                : 00:53:25.536
    01:03:27.178                : 01:03:27.178
    01:09:10.229                : 01:09:10.229
    01:14:16.535                : 01:14:16.535
    01:20:27.781                : 01:20:27.781

  • Peso: 23.1 GiB

Sinopsis

Descargar Chucky: El Muñeco Diabólico (1988) REMUX 1080p Latino. El vudú y el terror se apoderan de un muñeco de aspecto inocente habitado por el alma de un asesino en serie. Cuando Andy Barclay, un niño de seis años de edad, asegura que “Chucky”, su nuevo muñeco, ha arrojado violentamente por la ventana a su niñera, nadie le cree. Pero una larga serie de horribles asesinatos conduce al detective que se ocupa del caso hasta el muñeco y, entonces, descubre que el auténtico terror no ha hecho más que empezar. El malvado muñeco pretende transferir su diabólico espíritu a un ser humano, y el pequeño Andy parece ser el candidato perfecto.

Disponible Solo Para VIP!!!

Ficha técnica

  • Titulo original: Child's Play
  • Fecha de lanzamiento: 08-11-1988 (United States of America)
  • Director: Tom Holland
  • Género: Remux, Terror

Video trailer de la película

Enlaces de descarga

Rip de Bluray

Descargar Chucky: El Muñeco Diabólico (1988) REMUX 1080p Latino


Aportes de DPeliculasHDmega la pass es:dpeliculashdmega.org Aportes de CinemaniaHD la pass es:cinemaniahdd.com
Guardado en : Remux , Terror

Películas relacionadas

Chucky: El Muñeco Diabólico (1988) REMUX 1080p Latino pelicula full hd, Chucky: El Muñeco Diabólico (1988) REMUX 1080p Latino mega latino, Chucky: El Muñeco Diabólico (1988) REMUX 1080p Latino 4k latino, Chucky: El Muñeco Diabólico (1988) REMUX 1080p Latino pelicula completa, Chucky: El Muñeco Diabólico (1988) REMUX 1080p Latino descargar gratis, descargar Chucky: El Muñeco Diabólico (1988) REMUX 1080p Latino pelicula latino, Chucky: El Muñeco Diabólico (1988) REMUX 1080p Latino 1 link mega, Chucky: El Muñeco Diabólico (1988) REMUX 1080p Latino 1 link google drive, Chucky: El Muñeco Diabólico (1988) REMUX 1080p Latino hd 1080p latino.
Comentarios 0