×

¿Problemas para descargar con Mozilla, EDGE? Deshabilita la opción "Abrir vinculos en una pestaña nueva" tal como lo muestra ésta imagen.

Chucky: El Muñeco Diabólico (1988) 1080p Latino

229 vistas

Información de Chucky: El Muñeco Diabólico (1988) 1080p Latino

Datos de la película

  • Calidad: 1080p
  • Audio: Español Latino AC3 5.1 BLURAY - Ingles AC3 5.1 BLURAY
  • Subtitulos: Español Latino SRT - Ingles SRT
  • Resolución: 1920x1036p
  • Formato: MKV
  • Codec: H.264
  • Encoder: CinefiloCool
  • Mediainfo: Clic para Mostrar Datos Ver
  • El Muñeco Diabólico (1988) 1080p Latino-CMHDD.mkv
    Format                      : Matroska
    Format version              : Version 4
    File size                   : 4.42 GiB
    Duration                    : 1 h 27 min
    Overall bit rate mode       : Variable
    Overall bit rate            : 7 264 kb/s
    Movie name                  : Child's Play (1988) CinemaniaHDD.Net
    Encoded date                : UTC 2022-07-21 14:17:14
    Writing application         : mkvmerge v56.1.0 ('My Friend') 64-bit
    Writing library             : libebml v1.4.2 + libmatroska v1.6.4
    Attachments                 : CINEMANIAHD.png

    Video
    ID                          : 1
    Format                      : AVC
    Format/Info                 : Advanced Video Codec
    Format profile              : High@L4.2
    Format settings             : CABAC / 4 Ref Frames
    Format settings, CABAC      : Yes
    Format settings, Reference  : 4 frames
    Codec ID                    : V_MPEG4/ISO/AVC
    Duration                    : 1 h 27 min
    Bit rate mode               : Variable
    Bit rate                    : 6 366 kb/s
    Width                       : 1 920 pixels
    Height                      : 1 036 pixels
    Display aspect ratio        : 1.85:1
    Frame rate mode             : Constant
    Frame rate                  : 23.976 (24000/1001) FPS
    Color space                 : YUV
    Chroma subsampling          : 4:2:0
    Bit depth                   : 8 bits
    Scan type                   : Progressive
    Bits/(Pixel*Frame)          : 0.133
    Stream size                 : 3.88 GiB (88%)
    Title                       : HD1080p [CinemaniaHDD]
    Writing library             : x264 core 163 r3059 b684ebe0
    Encoding settings           : cabac=1 / ref=4 / deblock=1:-2:-2 / analyse=0x3:0x133 / me=umh / subme=9 / psy=1 / psy_rd=1.00:0.25 / mixed_ref=1 / me_range=16 / chroma_me=1 / trellis=2 / 8x8dct=1 / cqm=0 / deadzone=6,6 / fast_pskip=1 / chroma_qp_offset=-4 / threads=24 / lookahead_threads=2 / sliced_threads=0 / nr=0 / decimate=0 / interlaced=0 / bluray_compat=0 / constrained_intra=0 / bframes=3 / b_pyramid=2 / b_adapt=2 / b_bias=0 / direct=3 / weightb=1 / open_gop=0 / weightp=2 / keyint=240 / keyint_min=24 / scenecut=40 / intra_refresh=0 / rc_lookahead=60 / rc=crf / mbtree=1 / crf=23.0 / qcomp=0.80 / qpmin=0 / qpmax=69 / qpstep=4 / vbv_maxrate=62500 / vbv_bufsize=78125 / crf_max=0.0 / nal_hrd=vbr / filler=0 / ip_ratio=1.10 / aq=1:0.50
    Default                     : Yes
    Forced                      : Yes
    Color range                 : Limited
    Color primaries             : BT.709
    Transfer characteristics    : BT.709
    Matrix coefficients         : BT.709

    Audio #1
    ID                          : 2
    Format                      : AC-3
    Format/Info                 : Audio Coding 3
    Commercial name             : Dolby Digital
    Codec ID                    : A_AC3
    Duration                    : 1 h 27 min
    Bit rate mode               : Constant
    Bit rate                    : 448 kb/s
    Channel(s)                  : 6 channels
    Channel layout              : L R C LFE Ls Rs
    Sampling rate               : 48.0 kHz
    Frame rate                  : 31.250 FPS (1536 SPF)
    Compression mode            : Lossy
    Delay relative to video     : -5 ms
    Stream size                 : 279 MiB (6%)
    Title                       : Español Latino [CinemaniaHDD]
    Language                    : Spanish
    Service kind                : Complete Main
    Default                     : Yes
    Forced                      : Yes

    Audio #2
    ID                          : 3
    Format                      : AC-3
    Format/Info                 : Audio Coding 3
    Commercial name             : Dolby Digital
    Codec ID                    : A_AC3
    Duration                    : 1 h 27 min
    Bit rate mode               : Constant
    Bit rate                    : 448 kb/s
    Channel(s)                  : 6 channels
    Channel layout              : L R C LFE Ls Rs
    Sampling rate               : 48.0 kHz
    Frame rate                  : 31.250 FPS (1536 SPF)
    Compression mode            : Lossy
    Delay relative to video     : -5 ms
    Stream size                 : 279 MiB (6%)
    Title                       : Ingles [CinemaniaHDD]
    Language                    : English
    Service kind                : Complete Main
    Default                     : No
    Forced                      : No

    Text #1
    ID                          : 4
    Format                      : UTF-8
    Codec ID                    : S_TEXT/UTF8
    Codec ID/Info               : UTF-8 Plain Text
    Duration                    : 1 h 3 min
    Bit rate                    : 0 b/s
    Count of elements           : 7
    Stream size                 : 158 Bytes (0%)
    Title                       : Forzados-SRT [CinemaniaHDD]
    Language                    : Spanish
    Default                     : Yes
    Forced                      : Yes

    Text #2
    ID                          : 5
    Format                      : UTF-8
    Codec ID                    : S_TEXT/UTF8
    Codec ID/Info               : UTF-8 Plain Text
    Duration                    : 1 h 22 min
    Bit rate                    : 35 b/s
    Count of elements           : 623
    Stream size                 : 21.5 KiB (0%)
    Title                       : Español-SRT [CinemaniaHDD]
    Language                    : Spanish
    Default                     : No
    Forced                      : No

    Text #3
    ID                          : 6
    Format                      : UTF-8
    Codec ID                    : S_TEXT/UTF8
    Codec ID/Info               : UTF-8 Plain Text
    Duration                    : 1 h 22 min
    Bit rate                    : 41 b/s
    Count of elements           : 720
    Stream size                 : 25.0 KiB (0%)
    Title                       : Ingles-SRT [CinemaniaHDD]
    Language                    : English
    Default                     : No
    Forced                      : No

    Menu
    00:00:00.000                : 00:00:00.000
    00:06:19.296                : 00:06:19.296
    00:13:21.217                : 00:13:21.217
    00:23:44.465                : 00:23:44.465
    00:29:36.024                : 00:29:36.024
    00:39:03.758                : 00:39:03.758
    00:46:46.470                : 00:46:46.470
    00:53:25.536                : 00:53:25.536
    01:03:27.178                : 01:03:27.178
    01:09:10.229                : 01:09:10.229
    01:14:16.535                : 01:14:16.535
    01:20:27.781                : 01:20:27.781

  • Peso: 4.42 GiB

Sinopsis

Descargar Chucky: El Muñeco Diabólico (1988) 1080p Latino. El vudú y el terror se apoderan de un muñeco de aspecto inocente habitado por el alma de un asesino en serie. Cuando Andy Barclay, un niño de seis años de edad, asegura que “Chucky”, su nuevo muñeco, ha arrojado violentamente por la ventana a su niñera, nadie le cree. Pero una larga serie de horribles asesinatos conduce al detective que se ocupa del caso hasta el muñeco y, entonces, descubre que el auténtico terror no ha hecho más que empezar. El malvado muñeco pretende transferir su diabólico espíritu a un ser humano, y el pequeño Andy parece ser el candidato perfecto.

Ficha técnica

  • Titulo original: Child's Play
  • Fecha de lanzamiento: 08-11-1988 (United States of America)
  • Director: Tom Holland
  • Género: HD 1080p, Terror

Video trailer de la película

Enlaces de descarga

Rip de Bluray

Descargar Chucky: El Muñeco Diabólico (1988) 1080p Latino




Aportes de DPeliculasHDmega la pass es:dpeliculashdmega.org Aportes de CinemaniaHD la pass es:cinemaniahdd.com
Guardado en : HD 1080p , Terror

Películas relacionadas

  • Emily la criminal (2022) HD 1080p Latino

    Emily la criminal (2022) HD 1080p Latino

    2022
    Emily la criminal (2022) HD 1080p Latino

    1h 37m 2022

    Descargar Emily la criminal (2022) HD 1080p Latino. Emily, que tiene una deuda estudiantil y está excluida...

    Director: John Patton Ford

    Género: Crimen

    Actores: Theo Rossi

  • Herencia peligrosa (2022) HD 1080p Latino

    Herencia peligrosa (2022) HD 1080p Latino

    2022
    Herencia peligrosa (2022) HD 1080p Latino

    1h 34m 2022

    Descargar Herencia peligrosa (2022) HD 1080p Latino. Tres ladrones se hacen con el yate de lujo de una...

    Director: Declan Whitebloom

    Género: Acción

    Actores: Vernon Davis

  • Território Hostil (2022) HD 1080p Latino

    Território Hostil (2022) HD 1080p Latino

    2022
    Território Hostil (2022) HD 1080p Latino

    1h 34m 2022

    Descargar Território Hostil (2022) HD 1080p Latino. En los Estados Unidos posteriores a la guerra civil,...

    Director: Brian Presley

    Género: Drama

    Actores: Natalie Whittle

  • Resurrección (2022) AMZN WEB-DL 1080p Latino

    Resurrección (2022) AMZN WEB-DL 1080p Latino

    2022
    Resurrección (2022) AMZN WEB-DL 1080p Latino

    1h 43m 2022

    Descargar Resurrección (2022) AMZN Web-DL 1080p Latino. La vida cuidadosamente construida de una mujer...

    Director: Michael Kefeyalew

    Género: Drama

    Actores: Zarra Kaahn

  • El Lobo Y El Leon (2021) HD 1080p Latino

    El Lobo Y El Leon (2021) HD 1080p Latino

    2021
    El Lobo Y El Leon (2021) HD 1080p Latino

    1h 39m 2021

    Descargar El Lobo Y El Leon (2021) HD 1080p Latino. A la muerte de su abuelo, Alma, un joven pianista...

    Director: Gilles de Maistre

    Género: Aventura

    Actores: Victor Cornfoot

descargar Chucky: El Muñeco Diabólico (1988) 1080p Latino 1080p 1080p gratis, Chucky: El Muñeco Diabólico (1988) 1080p Latino 1080p mega 1 link, Chucky: El Muñeco Diabólico (1988) 1080p Latino 1080p pelicula completa, descargar Chucky: El Muñeco Diabólico (1988) 1080p Latino 1080p gratis en mega.

Chucky: El Muñeco Diabólico (1988) 1080p Latino pelicula full hd, Chucky: El Muñeco Diabólico (1988) 1080p Latino mega latino, Chucky: El Muñeco Diabólico (1988) 1080p Latino 4k latino, Chucky: El Muñeco Diabólico (1988) 1080p Latino pelicula completa, Chucky: El Muñeco Diabólico (1988) 1080p Latino descargar gratis, descargar Chucky: El Muñeco Diabólico (1988) 1080p Latino pelicula latino, Chucky: El Muñeco Diabólico (1988) 1080p Latino 1 link mega, Chucky: El Muñeco Diabólico (1988) 1080p Latino 1 link google drive, Chucky: El Muñeco Diabólico (1988) 1080p Latino hd 1080p latino.
Comentarios 0