×

¿Problemas para descargar con Mozilla, EDGE? Deshabilita la opción "Abrir vinculos en una pestaña nueva" tal como lo muestra ésta imagen.

Chucky: El Muñeco Diabólico (1988) Full HD 1080p Latino

2.719 vistas

Información de Chucky: El Muñeco Diabólico (1988) Full HD 1080p Latino

Datos de la película

  • Calidad: Full 1080p
  • Audio: Español Latino AC3 5.1 BLURAY - Ingles DTS 5.1 BLURAY
  • Subtitulos: Español Latino PGS - Ingles PGS
  • Resolución: 1920x1080p
  • Formato: MKV
  • Codec: H.264
  • Encoder: dpelis1
  • Mediainfo: Clic para Mostrar Datos Ver
  • El Muñeco Diabólico (1988) Full HD 1080p Latino-CMHDD.mkv
    Format                      : Matroska
    Format version              : Version 4
    File size                   : 6.70 GiB
    Duration                    : 1 h 27 min
    Overall bit rate            : 11.0 Mb/s
    Movie name                  : Child's Play (1988) CinemaniaHDD.Net
    Encoded date                : UTC 2022-07-22 04:23:19
    Writing application         : mkvmerge v56.1.0 ('My Friend') 64-bit
    Writing library             : libebml v1.4.2 + libmatroska v1.6.4
    Attachments                 : CINEMANIAHD.png

    Video
    ID                          : 1
    Format                      : AVC
    Format/Info                 : Advanced Video Codec
    Format profile              : High@L4.1
    Format settings             : CABAC / 4 Ref Frames
    Format settings, CABAC      : Yes
    Format settings, Reference  : 4 frames
    Codec ID                    : V_MPEG4/ISO/AVC
    Duration                    : 1 h 27 min
    Bit rate                    : 8 981 kb/s
    Width                       : 1 920 pixels
    Height                      : 1 080 pixels
    Display aspect ratio        : 16:9
    Frame rate mode             : Constant
    Frame rate                  : 23.976 FPS
    Color space                 : YUV
    Chroma subsampling          : 4:2:0
    Bit depth                   : 8 bits
    Scan type                   : Progressive
    Bits/(Pixel*Frame)          : 0.181
    Stream size                 : 5.49 GiB (82%)
    Title                       : Full HD1080p [CinemaniaHDD]
    Writing library             : x264 core 148 r2708 86b7198
    Encoding settings           : cabac=1 / ref=4 / deblock=1:0:0 / analyse=0x3:0x133 / me=esa / subme=10 / psy=1 / psy_rd=1.00:0.00 / mixed_ref=1 / me_range=24 / chroma_me=1 / trellis=2 / 8x8dct=1 / cqm=0 / deadzone=21,11 / fast_pskip=1 / chroma_qp_offset=-2 / threads=12 / lookahead_threads=2 / sliced_threads=0 / nr=0 / decimate=1 / interlaced=0 / bluray_compat=0 / constrained_intra=0 / bframes=8 / b_pyramid=2 / b_adapt=2 / b_bias=0 / direct=3 / weightb=1 / open_gop=0 / weightp=2 / keyint=240 / keyint_min=24 / scenecut=40 / intra_refresh=0 / rc_lookahead=60 / rc=crf / mbtree=1 / crf=20.0 / qcomp=0.60 / qpmin=0 / qpmax=69 / qpstep=4 / vbv_maxrate=62500 / vbv_bufsize=78125 / crf_max=0.0 / nal_hrd=none / filler=0 / ip_ratio=1.40 / aq=1:1.00
    Default                     : Yes
    Forced                      : Yes
    Color range                 : Limited
    Color primaries             : BT.709
    Transfer characteristics    : BT.709
    Matrix coefficients         : BT.709

    Audio #1
    ID                          : 2
    Format                      : AC-3
    Format/Info                 : Audio Coding 3
    Commercial name             : Dolby Digital
    Codec ID                    : A_AC3
    Duration                    : 1 h 27 min
    Bit rate mode               : Constant
    Bit rate                    : 448 kb/s
    Channel(s)                  : 6 channels
    Channel layout              : L R C LFE Ls Rs
    Sampling rate               : 48.0 kHz
    Frame rate                  : 31.250 FPS (1536 SPF)
    Compression mode            : Lossy
    Stream size                 : 280 MiB (4%)
    Title                       : Español Latino [CinemaniaHDD]
    Language                    : Spanish
    Service kind                : Complete Main
    Default                     : Yes
    Forced                      : Yes

    Audio #2
    ID                          : 3
    Format                      : DTS
    Format/Info                 : Digital Theater Systems
    Codec ID                    : A_DTS
    Duration                    : 1 h 27 min
    Bit rate mode               : Constant
    Bit rate                    : 1 509 kb/s
    Channel(s)                  : 6 channels
    Channel layout              : C L R Ls Rs LFE
    Sampling rate               : 48.0 kHz
    Frame rate                  : 93.750 FPS (512 SPF)
    Bit depth                   : 16 bits
    Compression mode            : Lossy
    Stream size                 : 944 MiB (14%)
    Title                       : Ingles [CinemaniaHDD]
    Language                    : English
    Default                     : No
    Forced                      : No

    Text #1
    ID                          : 4
    Format                      : PGS
    Muxing mode                 : zlib
    Codec ID                    : S_HDMV/PGS
    Codec ID/Info               : Picture based subtitle format used on BDs/HD-DVDs
    Duration                    : 1 h 26 min
    Bit rate                    : 22.5 kb/s
    Count of elements           : 1463
    Stream size                 : 13.9 MiB (0%)
    Title                       : Español-PGS [CinemaniaHDD]
    Language                    : Spanish
    Default                     : No
    Forced                      : No

    Text #2
    ID                          : 5
    Format                      : PGS
    Muxing mode                 : zlib
    Codec ID                    : S_HDMV/PGS
    Codec ID/Info               : Picture based subtitle format used on BDs/HD-DVDs
    Duration                    : 1 h 26 min
    Bit rate                    : 29.3 kb/s
    Count of elements           : 1874
    Stream size                 : 18.1 MiB (0%)
    Title                       : Ingles-PGS [CinemaniaHDD]
    Language                    : English
    Default                     : No
    Forced                      : No

    Text #3
    ID                          : 6
    Format                      : UTF-8
    Codec ID                    : S_TEXT/UTF8
    Codec ID/Info               : UTF-8 Plain Text
    Duration                    : 1 h 3 min
    Bit rate                    : 0 b/s
    Count of elements           : 7
    Stream size                 : 158 Bytes (0%)
    Title                       : Forzados-SRT [CinemaniaHDD]
    Language                    : Spanish
    Default                     : Yes
    Forced                      : Yes

    Text #4
    ID                          : 7
    Format                      : UTF-8
    Codec ID                    : S_TEXT/UTF8
    Codec ID/Info               : UTF-8 Plain Text
    Duration                    : 1 h 22 min
    Bit rate                    : 35 b/s
    Count of elements           : 623
    Stream size                 : 21.5 KiB (0%)
    Title                       : Español-SRT [CinemaniaHDD]
    Language                    : Spanish
    Default                     : No
    Forced                      : No

    Menu
    00:00:00.000                : :Chapter 1
    00:04:56.046                : :Chapter 2
    00:06:32.809                : :Chapter 3
    00:08:55.326                : :Chapter 4
    00:11:21.598                : :Chapter 5
    00:12:37.173                : :Chapter 6
    00:13:35.273                : :Chapter 7
    00:14:35.041                : :Chapter 8
    00:18:53.549                : :Chapter 9
    00:22:57.751                : :Chapter 10
    00:23:58.520                : :Chapter 11
    00:28:42.095                : :Chapter 12
    00:29:50.080                : :Chapter 13
    00:33:18.705                : :Chapter 14
    00:36:04.996                : :Chapter 15
    00:39:17.814                : :Chapter 16
    00:41:21.104                : :Chapter 17
    00:43:58.886                : :Chapter 18
    00:47:00.234                : :Chapter 19
    00:48:25.111                : :Chapter 20
    00:51:08.774                : :Chapter 21
    00:52:21.096                : :Chapter 22
    00:53:39.591                : :Chapter 23
    00:56:11.285                : :Chapter 24
    00:57:31.698                : :Chapter 25
    00:59:30.484                : :Chapter 26
    01:02:27.327                : :Chapter 27
    01:03:41.234                : :Chapter 28
    01:04:44.005                : :Chapter 29
    01:07:46.771                : :Chapter 30
    01:08:40.867                : :Chapter 31
    01:11:45.092                : :Chapter 32
    01:13:39.081                : :Chapter 33
    01:16:30.336                : :Chapter 34
    01:20:00.170                : :Chapter 35
    01:23:58.825                : :Chapter 36

  • Peso: 6,69GB

Sinopsis

Descargar Chucky: El Muñeco Diabólico (1988) Full HD 1080p Latino. El vudú y el terror se apoderan de un muñeco de aspecto inocente habitado por el alma de un asesino en serie. Cuando Andy Barclay, un niño de seis años de edad, asegura que “Chucky”, su nuevo muñeco, ha arrojado violentamente por la ventana a su niñera, nadie le cree. Pero una larga serie de horribles asesinatos conduce al detective que se ocupa del caso hasta el muñeco y, entonces, descubre que el auténtico terror no ha hecho más que empezar. El malvado muñeco pretende transferir su diabólico espíritu a un ser humano, y el pequeño Andy parece ser el candidato perfecto.

RESUBIDO!!!

Ficha técnica

Video trailer de la película

Enlaces de descarga

Rip de Bluray

Descargar Chucky: El Muñeco Diabólico (1988) Full HD 1080p Latino




Aportes de DPeliculasHDmega la pass es:dpeliculashdmega.org Aportes de CinemaniaHD la pass es:cinemaniahdd.com

Películas relacionadas

Chucky: El Muñeco Diabólico (1988) Full HD 1080p Latino pelicula full hd, Chucky: El Muñeco Diabólico (1988) Full HD 1080p Latino mega latino, Chucky: El Muñeco Diabólico (1988) Full HD 1080p Latino 4k latino, Chucky: El Muñeco Diabólico (1988) Full HD 1080p Latino pelicula completa, Chucky: El Muñeco Diabólico (1988) Full HD 1080p Latino descargar gratis, descargar Chucky: El Muñeco Diabólico (1988) Full HD 1080p Latino pelicula latino, Chucky: El Muñeco Diabólico (1988) Full HD 1080p Latino 1 link mega, Chucky: El Muñeco Diabólico (1988) Full HD 1080p Latino 1 link google drive, Chucky: El Muñeco Diabólico (1988) Full HD 1080p Latino hd 1080p latino.
Comentarios 7
  • Luis - 20 junio, 2017

    Hola no puedo descomprimir hay erro en el .rar parte 9 peso solo 114kb, lo he descargado de los diferentes host y pesan lo mismo solo 114kb, mientras que en 1Fichier no hay parte 9.

    • dpelis - 02 julio, 2017

      la parte9 eso pesa. ya la baje completa de uptobox y la resubi 1fichier.

  • jonathan - 20 junio, 2017

    hola buenas noches hay un problema no puedo acceder a los enlaces publicos me podria alguien ayudar

    • dpelis - 20 junio, 2017

      reparado estimado

  • Miguel - 23 mayo, 2017

    hola me gustaria q subieran Vampire hunter d Bloodlust

  • Miguel Hinojosa - 09 mayo, 2017

    Que tal tengo problemas para descomprimir la película, pienso que esta incompleta o que falta una parte de mayor tamaño, de antemano gracias por los aportes.

    • dpelis - 09 mayo, 2017

      podria enviarme captura de los rar para ver el peso de cada rar, saludos