×

¿Problemas para descargar con Mozilla, EDGE? Deshabilita la opción "Abrir vinculos en una pestaña nueva" tal como lo muestra ésta imagen.

Children Of Men (2006) REMUX 1080p Latino – CMHDD

31 vistas

Información de Children Of Men (2006) REMUX 1080p Latino – CMHDD

Datos de la película

  • Calidad: Full 1080p
  • Audio: Español Latino AC3 2.0 BLURAY - Ingles DTS 5.1 BLURAY
  • Subtitulos: Español Latino PGS
  • Resolución: 19201080p
  • Formato:
  • Codec: H.264
  • Encoder: Dracarys
  • Mediainfo: Clic para Mostrar Datos Ver
  • Format                      : Matroska
    Format version              : Version 4
    File size                   : 23.3 GiB
    Duration                    : 1 h 49 min
    Overall bit rate mode       : Variable
    Overall bit rate            : 30.5 Mb/s
    Movie name                  : Children Of Men (2006) REMUX 1080p Latino - CMHDD
    Encoded date                : UTC 2024-06-08 00:07:46
    Writing application         : mkvmerge v47.0.0 ('Black Flag') 64-bit
    Writing library             : libebml v1.3.10 + libmatroska v1.5.2

    Video
    ID                          : 1
    Format                      : VC-1
    Format profile              : Advanced@L3
    Codec ID                    : V_MS/VFW/FOURCC / WVC1
    Codec ID/Hint               : Microsoft
    Duration                    : 1 h 49 min
    Bit rate                    : 25.9 Mb/s
    Width                       : 1 920 pixels
    Height                      : 1 080 pixels
    Display aspect ratio        : 16:9
    Frame rate mode             : Constant
    Frame rate                  : 23.976 (24000/1001) FPS
    Color space                 : YUV
    Chroma subsampling          : 4:2:0
    Bit depth                   : 8 bits
    Scan type                   : Progressive
    Compression mode            : Lossy
    Bits/(Pixel*Frame)          : 0.521
    Stream size                 : 19.8 GiB (85%)
    Default                     : No
    Forced                      : No

    Audio #1
    ID                          : 2
    Format                      : AC-3
    Format/Info                 : Audio Coding 3
    Commercial name             : Dolby Digital
    Codec ID                    : A_AC3
    Duration                    : 1 h 49 min
    Bit rate mode               : Constant
    Bit rate                    : 320 kb/s
    Channel(s)                  : 2 channels
    Channel layout              : L R
    Sampling rate               : 48.0 kHz
    Frame rate                  : 31.250 FPS (1536 SPF)
    Compression mode            : Lossy
    Stream size                 : 250 MiB (1%)
    Language                    : Spanish
    Service kind                : Complete Main
    Default                     : Yes
    Forced                      : No

    Audio #2
    ID                          : 3
    Format                      : DTS XLL
    Format/Info                 : Digital Theater Systems
    Commercial name             : DTS-HD Master Audio
    Codec ID                    : A_DTS
    Duration                    : 1 h 49 min
    Bit rate mode               : Variable
    Bit rate                    : 3 611 kb/s
    Channel(s)                  : 6 channels
    Channel layout              : C L R Ls Rs LFE
    Sampling rate               : 48.0 kHz
    Frame rate                  : 93.750 FPS (512 SPF)
    Bit depth                   : 24 bits
    Compression mode            : Lossless
    Stream size                 : 2.76 GiB (12%)
    Language                    : English
    Default                     : No
    Forced                      : No

    Audio #3
    ID                          : 4
    Format                      : AC-3
    Format/Info                 : Audio Coding 3
    Commercial name             : Dolby Digital
    Codec ID                    : A_AC3
    Duration                    : 1 h 49 min
    Bit rate mode               : Constant
    Bit rate                    : 640 kb/s
    Channel(s)                  : 6 channels
    Channel layout              : L R C LFE Ls Rs
    Sampling rate               : 48.0 kHz
    Frame rate                  : 31.250 FPS (1536 SPF)
    Compression mode            : Lossy
    Stream size                 : 500 MiB (2%)
    Language                    : English
    Service kind                : Complete Main
    Default                     : No
    Forced                      : No

    Text #1
    ID                          : 5
    Format                      : UTF-8
    Codec ID                    : S_TEXT/UTF8
    Codec ID/Info               : UTF-8 Plain Text
    Duration                    : 1 h 39 min
    Bit rate                    : 59 b/s
    Count of elements           : 1171
    Stream size                 : 43.3 KiB (0%)
    Language                    : Spanish
    Default                     : No
    Forced                      : No

    Text #2
    ID                          : 6
    Format                      : PGS
    Muxing mode                 : zlib
    Codec ID                    : S_HDMV/PGS
    Codec ID/Info               : Picture based subtitle format used on BDs/HD-DVDs
    Duration                    : 1 h 39 min
    Bit rate                    : 30.9 kb/s
    Count of elements           : 2349
    Stream size                 : 22.0 MiB (0%)
    Language                    : Spanish
    Default                     : No
    Forced                      : No

    Menu
    00:00:00.000                : en:Chapter 01
    00:07:17.770                : en:Chapter 02
    00:11:02.328                : en:Chapter 03
    00:16:44.670                : en:Chapter 04
    00:21:07.975                : en:Chapter 05
    00:25:53.134                : en:Chapter 06
    00:30:20.985                : en:Chapter 07
    00:37:26.827                : en:Chapter 08
    00:42:37.888                : en:Chapter 09
    00:47:31.515                : en:Chapter 10
    00:55:28.116                : en:Chapter 11
    01:00:23.661                : en:Chapter 12
    01:07:08.441                : en:Chapter 13
    01:11:53.225                : en:Chapter 14
    01:16:26.707                : en:Chapter 15
    01:21:21.334                : en:Chapter 16
    01:23:50.608                : en:Chapter 17
    01:31:26.564                : en:Chapter 18
    01:34:48.599                : en:Chapter 19
    01:40:18.387                : en:Chapter 20

     

  • Peso: 23.3 GiB

Sinopsis

Año 2027: el ser humano está al borde de la extinción: los hombres han perdido la capacidad de procrear y se ignora por qué razon todas las mujeres del planeta se han vuelto estériles. Al mismo tiempo, el mundo se estremece cuando muere un muchacho de 18 años, la persona más joven de la Tierra. Se vive, pues, una situación de caos galopante. En tales circunstancias, Theo (Clive Owen), un desilusionado ex-activista radical de Londres convertido en burócrata, es contratado por Julian (Julianne Moore) para que proteja a una mujer que puede tener el secreto de la salvación de la humanidad, la persona más valiosa de la Tierra…

Ficha técnica

Video trailer de la película

Enlaces de descarga

Rip de Bluray

Descargar Children Of Men (2006) REMUX 1080p Latino – CMHDD




Aportes de DPeliculasHDmega la pass es:dpeliculashdmega.org Aportes de CinemaniaHD la pass es:cinemaniahdd.com Aportes recientes:cinemaniahdd.net
Guardado en : Acción , Ciencia ficción , Drama , Suspenso

Películas relacionadas

descargar Children Of Men (2006) REMUX 1080p Latino – CMHDD Full 1080p 1080p gratis, Children Of Men (2006) REMUX 1080p Latino – CMHDD Full 1080p mega 1 link, Children Of Men (2006) REMUX 1080p Latino – CMHDD Full 1080p pelicula completa, descargar Children Of Men (2006) REMUX 1080p Latino – CMHDD Full 1080p gratis en mega.

Children Of Men (2006) REMUX 1080p Latino – CMHDD pelicula full hd, Children Of Men (2006) REMUX 1080p Latino – CMHDD mega latino, Children Of Men (2006) REMUX 1080p Latino – CMHDD 4k latino, Children Of Men (2006) REMUX 1080p Latino – CMHDD pelicula completa, Children Of Men (2006) REMUX 1080p Latino – CMHDD descargar gratis, descargar Children Of Men (2006) REMUX 1080p Latino – CMHDD pelicula latino, Children Of Men (2006) REMUX 1080p Latino – CMHDD 1 link mega, Children Of Men (2006) REMUX 1080p Latino – CMHDD 1 link google drive, Children Of Men (2006) REMUX 1080p Latino – CMHDD hd 1080p latino.
Comentarios 0