×

¿Problemas para descargar con Mozilla, EDGE? Deshabilita la opción "Abrir vinculos en una pestaña nueva" tal como lo muestra ésta imagen.

Chicas pesadas (2024) AMZN WEB 1080p Latino

73 vistas

Información de Chicas pesadas (2024) AMZN WEB 1080p Latino

Datos de la película

  • Calidad: WEBDL
  • Audio: Español Latino AC3 5.1 WEB-DL - Ingles AC3 5.1 WEB-DL
  • Subtitulos: Español Latino SRT- FORZADOS SRT
  • Resolución: 1920x1040p
  • Formato: MKV
  • Codec: H.264
  • Encoder: Melkor
  • Mediainfo: Clic para Mostrar Datos Ver
  • Mean Girls (2024) AMZN WEB 1080p Latino.mkv
    Format                      : Matroska
    Format version              : Version 4
    File size                   : 8.39 GiB
    Duration                    : 1 h 52 min
    Overall bit rate            : 10.7 Mb/s
    Movie name                  : Mean Girls (2024) CinemaniaHDD.Net
    Encoded date                : UTC 2024-02-29 07:03:08
    Writing application         : mkvmerge v56.1.0 ('My Friend') 64-bit
    Writing library             : libebml v1.4.2 + libmatroska v1.6.4
    Attachments                 : CINEMANIAHD.png
    Site                        : CinemaniaHDD.Net
    Uploader                    : Melkor

    Video
    ID                          : 1
    Format                      : AVC
    Format/Info                 : Advanced Video Codec
    Format profile              : High@L4
    Format settings             : CABAC / 4 Ref Frames
    Format settings, CABAC      : Yes
    Format settings, Reference  : 4 frames
    Codec ID                    : V_MPEG4/ISO/AVC
    Duration                    : 1 h 52 min
    Bit rate mode               : Constant
    Bit rate                    : 10 000 kb/s
    Width                       : 1 920 pixels
    Height                      : 1 040 pixels
    Display aspect ratio        : 1.85:1
    Frame rate mode             : Constant
    Frame rate                  : 23.976 (24000/1001) FPS
    Color space                 : YUV
    Chroma subsampling          : 4:2:0
    Bit depth                   : 8 bits
    Scan type                   : Progressive
    Bits/(Pixel*Frame)          : 0.209
    Stream size                 : 7.48 GiB (89%)
    Title                       : Web HD1080p [CinemaniaHDD]
    Language                    : English
    Default                     : Yes
    Forced                      : Yes
    Color range                 : Limited
    Color primaries             : BT.709
    Transfer characteristics    : BT.709
    Matrix coefficients         : BT.709

    Audio #1
    ID                          : 2
    Format                      : AC-3
    Format/Info                 : Audio Coding 3
    Commercial name             : Dolby Digital
    Codec ID                    : A_AC3
    Duration                    : 1 h 52 min
    Bit rate mode               : Constant
    Bit rate                    : 384 kb/s
    Channel(s)                  : 6 channels
    Channel layout              : L R C LFE Ls Rs
    Sampling rate               : 48.0 kHz
    Frame rate                  : 31.250 FPS (1536 SPF)
    Compression mode            : Lossy
    Stream size                 : 308 MiB (4%)
    Title                       : Español Latino [CinemaniaHDD]
    Language                    : Spanish
    Service kind                : Complete Main
    Default                     : Yes
    Forced                      : Yes

    Audio #2
    ID                          : 3
    Format                      : E-AC-3 JOC
    Format/Info                 : Enhanced AC-3 with Joint Object Coding
    Commercial name             : Dolby Digital Plus with Dolby Atmos
    Codec ID                    : A_EAC3
    Duration                    : 1 h 52 min
    Bit rate mode               : Constant
    Bit rate                    : 768 kb/s
    Channel(s)                  : 6 channels
    Channel layout              : L R C LFE Ls Rs
    Sampling rate               : 48.0 kHz
    Frame rate                  : 31.250 FPS (1536 SPF)
    Compression mode            : Lossy
    Delay relative to video     : 20 ms
    Stream size                 : 616 MiB (7%)
    Title                       : Ingles [CinemaniaHDD]
    Language                    : English
    Service kind                : Complete Main
    Default                     : No
    Forced                      : No
    Complexity index            : 16
    Number of dynamic objects   : 15
    Bed channel count           : 1 channel
    Bed channel configuration   : LFE

    Text #1
    ID                          : 4
    Format                      : UTF-8
    Codec ID                    : S_TEXT/UTF8
    Codec ID/Info               : UTF-8 Plain Text
    Duration                    : 1 h 51 min
    Bit rate                    : 23 b/s
    Count of elements           : 527
    Stream size                 : 18.9 KiB (0%)
    Title                       : Forzados-SRT [CinemaniaHDD]
    Language                    : Spanish
    Default                     : Yes
    Forced                      : Yes

    Text #2
    ID                          : 5
    Format                      : UTF-8
    Codec ID                    : S_TEXT/UTF8
    Codec ID/Info               : UTF-8 Plain Text
    Duration                    : 1 h 51 min
    Bit rate                    : 71 b/s
    Count of elements           : 1744
    Stream size                 : 58.6 KiB (0%)
    Title                       : Español-SRT [CinemaniaHDD]
    Language                    : Spanish
    Default                     : No
    Forced                      : No

    Text #3
    ID                          : 6
    Format                      : UTF-8
    Codec ID                    : S_TEXT/UTF8
    Codec ID/Info               : UTF-8 Plain Text
    Duration                    : 1 h 51 min
    Bit rate                    : 85 b/s
    Count of elements           : 2030
    Stream size                 : 69.8 KiB (0%)
    Title                       : Ingles-SRT [CinemaniaHDD]
    Language                    : English
    Default                     : No
    Forced                      : No

    Menu
    00:00:00.000                : Chapter 01
    00:07:55.684                : Chapter 02
    00:14:53.226                : Chapter 03
    00:21:38.715                : Chapter 04
    00:29:08.915                : Chapter 05
    00:39:43.091                : Chapter 06
    00:47:20.131                : Chapter 07
    00:54:55.962                : Chapter 08
    01:04:48.138                : Chapter 09
    01:14:02.567                : Chapter 10
    01:21:35.103                : Chapter 11
    01:28:08.496                : Chapter 12
    01:37:28.223                : Chapter 13
    01:44:45.368                : Chapter 14

  • Peso: 8.39 GiB

Sinopsis

Descargar Chicas pesadas (2024) AMZN WEB 1080p Latino. La nueva estudiante Cady Heron es bienvenida a la cima de la cadena social por el elitista grupo de chicas populares llamado «Las Plásticas», gobernado por la intrigante abeja reina Regina George y sus secuaces Gretchen y Karen. Sin embargo, cuando Cady comete el grave error de enamorarse del ex novio de Regina, Aaron Samuels, se encuentra en el punto de mira de Regina. Con la ayuda de sus amigos marginados Janis y Damian, Cady se propone acabar con la depredadora del grupo y aprender a ser fiel a sí misma en la jungla más despiadada de todas: el instituto.

Ficha técnica

Video trailer de la película

Enlaces de descarga

Rip de Bluray

Descargar Chicas pesadas (2024) AMZN WEB 1080p Latino




Aportes de DPeliculasHDmega la pass es:dpeliculashdmega.org Aportes de CinemaniaHD la pass es:cinemaniahdd.com Aportes recientes:cinemaniahdd.net
Guardado en : Comedia

Películas relacionadas

  • Good Burger 2 (2023) HD 1080p Latino

    Good Burger 2 (2023) HD 1080p Latino

    2023
    Good Burger 2 (2023) HD 1080p Latino

    1h 31m 2023

    Descargar Good Burger 2 (2023) HD 1080p Latino. Después de que su último invento falla, Ed le da la...

    Director: Ross Novie

    Género: Comedia

    Actores: Zoe Saldana

  • Good Burger 2 (2023) PLACEBO Full HD 1080p Latino

    Good Burger 2 (2023) PLACEBO Full HD 1080p Latino

    2023
    Good Burger 2 (2023) PLACEBO Full HD 1080p Latino

    1h 31m 2023

    Descargar Good Burger 2 (2023) PLACEBO Full HD 1080p Latino. Después de que su último invento falla,...

    Director: Ross Novie

    Género: Comedia

    Actores: Zoe Saldana

  • Good Burger 2 (2023) REMUX 1080p Latino

    Good Burger 2 (2023) REMUX 1080p Latino

    2023
    Good Burger 2 (2023) REMUX 1080p Latino

    1h 31m 2023

    Descargar Good Burger 2 (2023) REMUX 1080p Latino. Después de que su último invento falla, Ed le da...

    Director: Ross Novie

    Género: Comedia

    Actores: Zoe Saldana

descargar Chicas pesadas (2024) AMZN WEB 1080p Latino WEBDL 1080p gratis, Chicas pesadas (2024) AMZN WEB 1080p Latino WEBDL mega 1 link, Chicas pesadas (2024) AMZN WEB 1080p Latino WEBDL pelicula completa, descargar Chicas pesadas (2024) AMZN WEB 1080p Latino WEBDL gratis en mega.

Chicas pesadas (2024) AMZN WEB 1080p Latino pelicula full hd, Chicas pesadas (2024) AMZN WEB 1080p Latino mega latino, Chicas pesadas (2024) AMZN WEB 1080p Latino 4k latino, Chicas pesadas (2024) AMZN WEB 1080p Latino pelicula completa, Chicas pesadas (2024) AMZN WEB 1080p Latino descargar gratis, descargar Chicas pesadas (2024) AMZN WEB 1080p Latino pelicula latino, Chicas pesadas (2024) AMZN WEB 1080p Latino 1 link mega, Chicas pesadas (2024) AMZN WEB 1080p Latino 1 link google drive, Chicas pesadas (2024) AMZN WEB 1080p Latino hd 1080p latino.
Comentarios 0